<?xml version="1.0" standalone="no"?>
<!DOCTYPE svg PUBLIC "-//W3C//DTD SVG 1.1//EN" "http://www.w3.org/Graphics/SVG/1.1/DTD/svg11.dtd">
<svg xmlns="http://www.w3.org/2000/svg">
<metadata>Copyright (C) 2019 by original authors @ fontello.com</metadata>
<defs>
<font id="fontello-pack" horiz-adv-x="1000" >
<font-face font-family="fontello-pack" font-weight="400" font-stretch="normal" units-per-em="1000" ascent="850" descent="-150" />
<missing-glyph horiz-adv-x="1000" />
<glyph glyph-name="mail" unicode="&#xe800;" d="M929 11v428q-18-20-39-36-149-115-238-189-28-24-46-37t-48-28-57-13h-2q-26 0-57 13t-48 28-46 37q-88 74-238 189-21 16-39 36v-428q0-7 6-13t12-5h822q7 0 12 5t6 13z m0 586v14t-1 7-1 7-3 5-5 4-8 2h-822q-7 0-12-6t-6-12q0-94 83-159 107-84 223-176 4-3 20-17t25-21 25-17 28-16 24-5h2q11 0 24 5t28 16 25 17 25 21 20 17q116 92 224 176 30 24 56 65t26 73z m71 21v-607q0-37-26-63t-63-27h-822q-36 0-63 27t-26 63v607q0 37 26 63t63 26h822q37 0 63-26t26-63z" horiz-adv-x="1000" />

<glyph glyph-name="heart" unicode="&#xe801;" d="M500-79q-14 0-25 10l-348 336q-5 5-15 15t-31 37-38 54-30 67-13 77q0 123 71 192t196 70q34 0 70-12t67-33 54-38 42-38q20 20 42 38t54 38 67 33 70 12q125 0 196-70t71-192q0-123-128-251l-347-335q-10-10-25-10z" horiz-adv-x="1000" />

<glyph glyph-name="heart-empty" unicode="&#xe802;" d="M929 517q0 46-12 80t-31 55-46 33-52 18-55 4-62-14-62-36-48-40-34-34q-10-13-27-13t-27 13q-14 15-34 34t-48 40-62 36-62 14-55-4-52-18-46-33-31-55-12-80q0-93 105-198l324-312 324 312q105 105 105 198z m71 0q0-123-128-251l-347-335q-10-10-25-10t-25 10l-348 336q-5 5-15 15t-31 37-38 54-30 67-13 77q0 123 71 192t196 70q34 0 70-12t67-33 54-38 42-38q20 20 42 38t54 38 67 33 70 12q125 0 196-70t71-192z" horiz-adv-x="1000" />

<glyph glyph-name="star" unicode="&#xe803;" d="M929 489q0-12-15-27l-202-197 48-279q0-4 0-12 0-11-6-19t-17-9q-10 0-22 7l-251 132-250-132q-12-7-23-7-11 0-17 9t-6 19q0 4 1 12l48 279-203 197q-14 15-14 27 0 21 31 26l280 40 126 254q11 23 27 23t28-23l125-254 280-40q32-5 32-26z" horiz-adv-x="928.6" />

<glyph glyph-name="star-empty" unicode="&#xe804;" d="M635 290l170 166-235 34-106 213-105-213-236-34 171-166-41-235 211 111 211-111z m294 199q0-12-15-27l-202-197 48-279q0-4 0-12 0-28-23-28-10 0-22 7l-251 132-250-132q-12-7-23-7-11 0-17 9t-6 19q0 4 1 12l48 279-203 197q-14 15-14 27 0 21 31 26l280 40 126 254q11 23 27 23t28-23l125-254 280-40q32-5 32-26z" horiz-adv-x="928.6" />

<glyph glyph-name="star-half" unicode="&#xe805;" d="M464 832v-747l-250-132q-12-7-23-7-11 0-17 9t-6 19q0 4 1 12l48 279-203 197q-14 15-14 27 0 21 31 26l280 40 126 254q11 23 27 23z" horiz-adv-x="500" />

<glyph glyph-name="picture" unicode="&#xe806;" d="M357 529q0-45-31-76t-76-32-76 32-31 76 31 76 76 31 76-31 31-76z m572-215v-250h-786v107l178 179 90-89 285 285z m53 393h-893q-7 0-12-5t-6-13v-678q0-7 6-13t12-5h893q7 0 13 5t5 13v678q0 8-5 13t-13 5z m89-18v-678q0-37-26-63t-63-27h-893q-36 0-63 27t-26 63v678q0 37 26 63t63 27h893q37 0 63-27t26-63z" horiz-adv-x="1071.4" />

<glyph glyph-name="video" unicode="&#xe807;" d="M214-43v72q0 14-10 25t-25 10h-72q-14 0-25-10t-11-25v-72q0-14 11-25t25-11h72q14 0 25 11t10 25z m0 214v72q0 14-10 25t-25 11h-72q-14 0-25-11t-11-25v-72q0-14 11-25t25-10h72q14 0 25 10t10 25z m0 215v71q0 15-10 25t-25 11h-72q-14 0-25-11t-11-25v-71q0-15 11-25t25-11h72q14 0 25 11t10 25z m572-429v286q0 14-11 25t-25 11h-429q-14 0-25-11t-10-25v-286q0-14 10-25t25-11h429q15 0 25 11t11 25z m-572 643v71q0 15-10 26t-25 10h-72q-14 0-25-10t-11-26v-71q0-14 11-25t25-11h72q14 0 25 11t10 25z m786-643v72q0 14-11 25t-25 10h-71q-15 0-25-10t-11-25v-72q0-14 11-25t25-11h71q15 0 25 11t11 25z m-214 429v285q0 15-11 26t-25 10h-429q-14 0-25-10t-10-26v-285q0-15 10-25t25-11h429q15 0 25 11t11 25z m214-215v72q0 14-11 25t-25 11h-71q-15 0-25-11t-11-25v-72q0-14 11-25t25-10h71q15 0 25 10t11 25z m0 215v71q0 15-11 25t-25 11h-71q-15 0-25-11t-11-25v-71q0-15 11-25t25-11h71q15 0 25 11t11 25z m0 214v71q0 15-11 26t-25 10h-71q-15 0-25-10t-11-26v-71q0-14 11-25t25-11h71q15 0 25 11t11 25z m71 89v-750q0-37-26-63t-63-26h-893q-36 0-63 26t-26 63v750q0 37 26 63t63 27h893q37 0 63-27t26-63z" horiz-adv-x="1071.4" />

<glyph glyph-name="camera" unicode="&#xe808;" d="M536 475q66 0 113-47t47-114-47-113-113-47-114 47-47 113 47 114 114 47z m393 232q59 0 101-42t41-101v-500q0-59-41-101t-101-42h-786q-59 0-101 42t-42 101v500q0 59 42 101t101 42h125l28 76q11 27 39 47t58 20h286q29 0 57-20t39-47l29-76h125z m-393-643q103 0 176 74t74 176-74 177-176 73-177-73-73-177 73-176 177-74z" horiz-adv-x="1071.4" />

<glyph glyph-name="camera-alt" unicode="&#xe809;" d="M518 386q0 8-5 13t-13 5q-37 0-63-27t-26-63q0-7 5-12t13-6 12 6 5 12q0 23 16 38t38 16q8 0 13 5t5 13z m125-73q0-59-42-101t-101-42-101 42-42 101 42 101 101 42 101-42 42-101z m-572-320h858v71h-858v-71z m643 320q0 89-62 152t-152 63-151-63-63-152 63-151 151-63 152 63 62 151z m-571 358h214v72h-214v-72z m-72-107h858v143h-462l-36-71h-360v-72z m929 143v-714q0-30-21-51t-50-21h-858q-29 0-50 21t-21 51v714q0 30 21 51t50 21h858q29 0 50-21t21-51z" horiz-adv-x="1000" />

<glyph glyph-name="th-large" unicode="&#xe80a;" d="M429 279v-215q0-29-22-50t-50-21h-286q-29 0-50 21t-21 50v215q0 29 21 50t50 21h286q29 0 50-21t22-50z m0 428v-214q0-29-22-50t-50-22h-286q-29 0-50 22t-21 50v214q0 29 21 50t50 22h286q29 0 50-22t22-50z m500-428v-215q0-29-22-50t-50-21h-286q-29 0-50 21t-21 50v215q0 29 21 50t50 21h286q29 0 50-21t22-50z m0 428v-214q0-29-22-50t-50-22h-286q-29 0-50 22t-21 50v214q0 29 21 50t50 22h286q29 0 50-22t22-50z" horiz-adv-x="928.6" />

<glyph glyph-name="th" unicode="&#xe80b;" d="M286 154v-108q0-22-16-37t-38-16h-178q-23 0-38 16t-16 37v108q0 22 16 38t38 15h178q23 0 38-15t16-38z m0 285v-107q0-22-16-38t-38-15h-178q-23 0-38 15t-16 38v107q0 23 16 38t38 16h178q23 0 38-16t16-38z m357-285v-108q0-22-16-37t-38-16h-178q-23 0-38 16t-16 37v108q0 22 16 38t38 15h178q23 0 38-15t16-38z m-357 571v-107q0-22-16-38t-38-16h-178q-23 0-38 16t-16 38v107q0 22 16 38t38 16h178q23 0 38-16t16-38z m357-286v-107q0-22-16-38t-38-15h-178q-23 0-38 15t-16 38v107q0 23 16 38t38 16h178q23 0 38-16t16-38z m357-285v-108q0-22-16-37t-38-16h-178q-22 0-38 16t-16 37v108q0 22 16 38t38 15h178q23 0 38-15t16-38z m-357 571v-107q0-22-16-38t-38-16h-178q-23 0-38 16t-16 38v107q0 22 16 38t38 16h178q23 0 38-16t16-38z m357-286v-107q0-22-16-38t-38-15h-178q-22 0-38 15t-16 38v107q0 23 16 38t38 16h178q23 0 38-16t16-38z m0 286v-107q0-22-16-38t-38-16h-178q-22 0-38 16t-16 38v107q0 22 16 38t38 16h178q23 0 38-16t16-38z" horiz-adv-x="1000" />

<glyph glyph-name="th-list" unicode="&#xe80c;" d="M286 154v-108q0-22-16-37t-38-16h-178q-23 0-38 16t-16 37v108q0 22 16 38t38 15h178q23 0 38-15t16-38z m0 285v-107q0-22-16-38t-38-15h-178q-23 0-38 15t-16 38v107q0 23 16 38t38 16h178q23 0 38-16t16-38z m714-285v-108q0-22-16-37t-38-16h-535q-23 0-38 16t-16 37v108q0 22 16 38t38 15h535q23 0 38-15t16-38z m-714 571v-107q0-22-16-38t-38-16h-178q-23 0-38 16t-16 38v107q0 22 16 38t38 16h178q23 0 38-16t16-38z m714-286v-107q0-22-16-38t-38-15h-535q-23 0-38 15t-16 38v107q0 23 16 38t38 16h535q23 0 38-16t16-38z m0 286v-107q0-22-16-38t-38-16h-535q-23 0-38 16t-16 38v107q0 22 16 38t38 16h535q23 0 38-16t16-38z" horiz-adv-x="1000" />

<glyph glyph-name="ok" unicode="&#xe80d;" d="M933 534q0-22-16-38l-404-404-76-76q-16-15-38-15t-38 15l-76 76-202 202q-15 16-15 38t15 38l76 76q16 16 38 16t38-16l164-165 366 367q16 16 38 16t38-16l76-76q16-15 16-38z" horiz-adv-x="1000" />

<glyph glyph-name="ok-circled" unicode="&#xe80e;" d="M717 440q0 16-10 26l-51 50q-11 11-25 11t-25-11l-228-227-126 126q-11 11-25 11t-25-11l-51-50q-10-10-10-26 0-15 10-25l202-202q10-10 25-10 15 0 26 10l303 303q10 10 10 25z m140-90q0-117-57-215t-156-156-215-58-216 58-155 156-58 215 58 215 155 156 216 58 215-58 156-156 57-215z" horiz-adv-x="857.1" />

<glyph glyph-name="ok-circled2" unicode="&#xe80f;" d="M654 396l-236-235q-11-11-25-11t-25 11l-164 164q-11 11-11 25t11 25l57 57q10 11 25 11t25-11l82-82 153 154q11 10 25 10t26-10l57-57q10-11 10-26t-10-25z m78-46q0 83-41 152t-110 111-152 41-153-41-110-111-41-152 41-152 110-111 153-41 152 41 110 111 41 152z m125 0q0-117-57-215t-156-156-215-58-216 58-155 156-58 215 58 215 155 156 216 58 215-58 156-156 57-215z" horiz-adv-x="857.1" />

<glyph glyph-name="cancel" unicode="&#xe810;" d="M724 112q0-22-15-38l-76-76q-16-15-38-15t-38 15l-164 165-164-165q-16-15-38-15t-38 15l-76 76q-16 16-16 38t16 38l164 164-164 164q-16 16-16 38t16 38l76 76q16 16 38 16t38-16l164-164 164 164q16 16 38 16t38-16l76-76q15-15 15-38t-15-38l-164-164 164-164q15-15 15-38z" horiz-adv-x="785.7" />

<glyph glyph-name="cancel-circled" unicode="&#xe811;" d="M641 224q0 14-10 25l-101 101 101 101q10 11 10 25 0 15-10 26l-51 50q-10 11-25 11-15 0-25-11l-101-101-101 101q-11 11-25 11-16 0-26-11l-50-50q-11-11-11-26 0-14 11-25l101-101-101-101q-11-11-11-25 0-15 11-26l50-50q10-11 26-11 14 0 25 11l101 101 101-101q10-11 25-11 15 0 25 11l51 50q10 11 10 26z m216 126q0-117-57-215t-156-156-215-58-216 58-155 156-58 215 58 215 155 156 216 58 215-58 156-156 57-215z" horiz-adv-x="857.1" />

<glyph glyph-name="cancel-circled2" unicode="&#xe812;" d="M612 248l-81-82q-6-5-13-5t-13 5l-76 77-77-77q-5-5-13-5t-12 5l-82 82q-6 6-6 13t6 13l76 76-76 77q-6 5-6 12t6 13l82 82q5 5 12 5t13-5l77-77 76 77q6 5 13 5t13-5l81-82q6-5 6-13t-6-12l-76-77 76-76q6-6 6-13t-6-13z m120 102q0 83-41 152t-110 111-152 41-153-41-110-111-41-152 41-152 110-111 153-41 152 41 110 111 41 152z m125 0q0-117-57-215t-156-156-215-58-216 58-155 156-58 215 58 215 155 156 216 58 215-58 156-156 57-215z" horiz-adv-x="857.1" />

<glyph glyph-name="plus" unicode="&#xe813;" d="M786 439v-107q0-22-16-38t-38-15h-232v-233q0-22-16-37t-38-16h-107q-22 0-38 16t-15 37v233h-232q-23 0-38 15t-16 38v107q0 23 16 38t38 16h232v232q0 22 15 38t38 16h107q23 0 38-16t16-38v-232h232q23 0 38-16t16-38z" horiz-adv-x="785.7" />

<glyph glyph-name="plus-circled" unicode="&#xe814;" d="M679 314v72q0 14-11 25t-25 10h-143v143q0 15-11 25t-25 11h-71q-15 0-25-11t-11-25v-143h-143q-14 0-25-10t-10-25v-72q0-14 10-25t25-10h143v-143q0-15 11-25t25-11h71q15 0 25 11t11 25v143h143q14 0 25 10t11 25z m178 36q0-117-57-215t-156-156-215-58-216 58-155 156-58 215 58 215 155 156 216 58 215-58 156-156 57-215z" horiz-adv-x="857.1" />

<glyph glyph-name="minus" unicode="&#xe815;" d="M786 439v-107q0-22-16-38t-38-15h-678q-23 0-38 15t-16 38v107q0 23 16 38t38 16h678q23 0 38-16t16-38z" horiz-adv-x="785.7" />

<glyph glyph-name="minus-circled" unicode="&#xe816;" d="M679 314v72q0 14-11 25t-25 10h-429q-14 0-25-10t-10-25v-72q0-14 10-25t25-10h429q14 0 25 10t11 25z m178 36q0-117-57-215t-156-156-215-58-216 58-155 156-58 215 58 215 155 156 216 58 215-58 156-156 57-215z" horiz-adv-x="857.1" />

<glyph glyph-name="videocam" unicode="&#xe817;" d="M1000 654v-608q0-23-22-32-7-3-14-3-15 0-25 10l-225 225v-92q0-67-47-114t-113-47h-393q-67 0-114 47t-47 114v392q0 67 47 114t114 47h393q66 0 113-47t47-114v-92l225 225q10 10 25 10 7 0 14-2 22-10 22-33z" horiz-adv-x="1000" />

<glyph glyph-name="help-circled" unicode="&#xe818;" d="M500 82v107q0 8-5 13t-13 5h-107q-8 0-13-5t-5-13v-107q0-8 5-13t13-5h107q8 0 13 5t5 13z m143 375q0 49-31 91t-77 65-95 23q-136 0-207-119-9-13 4-24l74-55q4-4 10-4 9 0 14 7 30 38 48 51 19 14 48 14 27 0 48-15t21-33q0-21-11-34t-38-25q-35-15-65-48t-29-70v-20q0-8 5-13t13-5h107q8 0 13 5t5 13q0 10 12 27t30 28q18 10 28 16t25 19 25 27 16 34 7 45z m214-107q0-117-57-215t-156-156-215-58-216 58-155 156-58 215 58 215 155 156 216 58 215-58 156-156 57-215z" horiz-adv-x="857.1" />

<glyph glyph-name="info-circled" unicode="&#xe819;" d="M571 82v89q0 8-5 13t-12 5h-54v286q0 8-5 13t-13 5h-178q-8 0-13-5t-5-13v-89q0-8 5-13t13-5h53v-179h-53q-8 0-13-5t-5-13v-89q0-8 5-13t13-5h250q7 0 12 5t5 13z m-71 500v89q0 8-5 13t-13 5h-107q-8 0-13-5t-5-13v-89q0-8 5-13t13-5h107q8 0 13 5t5 13z m357-232q0-117-57-215t-156-156-215-58-216 58-155 156-58 215 58 215 155 156 216 58 215-58 156-156 57-215z" horiz-adv-x="857.1" />

<glyph glyph-name="home" unicode="&#xe81a;" d="M786 296v-267q0-15-11-25t-25-11h-214v214h-143v-214h-214q-15 0-25 11t-11 25v267q0 1 0 2t0 2l321 264 321-264q1-1 1-4z m124 39l-34-41q-5-5-12-6h-2q-7 0-12 3l-386 322-386-322q-7-4-13-3-7 1-12 6l-35 41q-4 6-3 13t6 12l401 334q18 15 42 15t43-15l136-113v108q0 8 5 13t13 5h107q8 0 13-5t5-13v-227l122-102q6-4 6-12t-4-13z" horiz-adv-x="928.6" />

<glyph glyph-name="link" unicode="&#xe81b;" d="M813 171q0 23-16 38l-116 116q-16 16-38 16-24 0-40-18 1-1 10-10t12-12 9-11 7-14 2-15q0-23-16-38t-38-16q-8 0-15 2t-14 7-11 9-12 12-10 10q-19-17-19-40 0-23 16-38l115-116q15-15 38-15 22 0 38 15l82 81q16 16 16 37z m-393 394q0 22-15 38l-115 115q-16 16-38 16-22 0-38-15l-82-82q-16-15-16-37 0-22 16-38l116-116q15-15 38-15 23 0 40 17-2 2-11 11t-12 12-8 10-7 14-2 16q0 22 15 38t38 15q9 0 16-2t14-7 11-8 12-12 10-11q18 17 18 41z m500-394q0-66-48-113l-82-81q-46-47-113-47-68 0-114 48l-115 115q-46 47-46 114 0 68 49 116l-49 49q-48-49-116-49-67 0-114 47l-116 116q-47 47-47 114t47 113l82 82q47 46 114 46 67 0 114-47l115-116q46-46 46-113 0-69-49-117l49-49q48 49 116 49 67 0 114-47l116-116q47-47 47-114z" horiz-adv-x="928.6" />

<glyph glyph-name="attach" unicode="&#xe81c;" d="M784 77q0-65-45-109t-109-44q-75 0-131 55l-434 434q-63 64-63 151 0 89 62 150t150 62q88 0 152-63l338-338q5-5 5-12 0-9-17-26t-26-17q-7 0-12 5l-339 339q-44 43-101 43-59 0-100-42t-40-101q0-58 42-101l433-433q35-36 81-36 36 0 59 24t24 59q0 46-35 81l-325 324q-14 14-33 14-16 0-27-11t-11-27q0-18 14-33l229-228q6-6 6-13 0-9-18-26t-26-17q-6 0-12 5l-229 229q-35 34-35 83 0 46 32 78t77 32q49 0 84-35l324-325q56-54 56-131z" horiz-adv-x="785.7" />

<glyph glyph-name="lock" unicode="&#xe81d;" d="M179 421h285v108q0 59-42 101t-101 41-101-41-41-101v-108z m464-53v-322q0-22-16-37t-38-16h-535q-23 0-38 16t-16 37v322q0 22 16 38t38 15h17v108q0 102 74 176t176 74 177-74 73-176v-108h18q23 0 38-15t16-38z" horiz-adv-x="642.9" />

<glyph glyph-name="lock-open" unicode="&#xe81e;" d="M929 529v-143q0-15-11-25t-25-11h-36q-14 0-25 11t-11 25v143q0 59-41 101t-101 41-101-41-42-101v-108h53q23 0 38-15t16-38v-322q0-22-16-37t-38-16h-535q-23 0-38 16t-16 37v322q0 22 16 38t38 15h375v108q0 103 73 176t177 74 176-74 74-176z" horiz-adv-x="928.6" />

<glyph glyph-name="pin" unicode="&#xe81f;" d="M268 368v250q0 8-5 13t-13 5-13-5-5-13v-250q0-8 5-13t13-5 13 5 5 13z m375-197q0-14-11-25t-25-10h-239l-29-270q-1-7-6-11t-11-5h-1q-15 0-17 15l-43 271h-225q-15 0-25 10t-11 25q0 69 44 124t99 55v286q-29 0-50 21t-22 50 22 50 50 22h357q29 0 50-22t21-50-21-50-50-21v-286q55 0 99-55t44-124z" horiz-adv-x="642.9" />

<glyph glyph-name="eye" unicode="&#xe820;" d="M929 314q-85 132-213 197 34-58 34-125 0-103-73-177t-177-73-177 73-73 177q0 67 34 125-128-65-213-197 75-114 187-182t242-68 243 68 186 182z m-402 215q0 11-8 19t-19 7q-70 0-120-50t-50-119q0-11 8-19t19-8 19 8 8 19q0 48 34 82t82 34q11 0 19 8t8 19z m473-215q0-19-11-38-78-129-210-206t-279-77-279 77-210 206q-11 19-11 38t11 39q78 128 210 205t279 78 279-78 210-205q11-20 11-39z" horiz-adv-x="1000" />

<glyph glyph-name="eye-off" unicode="&#xe821;" d="M310 105l43 79q-48 35-76 88t-27 114q0 67 34 125-128-65-213-197 94-144 239-209z m217 424q0 11-8 19t-19 7q-70 0-120-50t-50-119q0-11 8-19t19-8 19 8 8 19q0 48 34 82t82 34q11 0 19 8t8 19z m202 106q0-4 0-5-59-105-176-316t-176-316l-28-50q-5-9-15-9-7 0-75 39-9 6-9 16 0 7 25 49-80 36-147 96t-117 137q-11 17-11 38t11 39q86 131 212 207t277 76q50 0 100-10l31 54q5 9 15 9 3 0 10-3t18-9 18-10 18-10 10-7q9-5 9-15z m21-249q0-78-44-142t-117-91l157 280q4-25 4-47z m250-72q0-19-11-38-22-36-61-81-84-96-194-149t-234-53l41 74q119 10 219 76t169 171q-65 100-158 164l35 63q53-36 102-85t81-103q11-19 11-39z" horiz-adv-x="1000" />

<glyph glyph-name="tag" unicode="&#xe822;" d="M250 600q0 30-21 51t-50 20-51-20-21-51 21-50 51-21 50 21 21 50z m595-321q0-30-20-51l-274-274q-22-21-51-21-30 0-50 21l-399 399q-21 21-36 57t-15 65v232q0 29 21 50t50 22h233q29 0 65-15t57-36l399-399q20-21 20-50z" horiz-adv-x="857.1" />

<glyph glyph-name="tags" unicode="&#xe823;" d="M250 600q0 30-21 51t-50 20-51-20-21-51 21-50 51-21 50 21 21 50z m595-321q0-30-20-51l-274-274q-22-21-51-21-30 0-50 21l-399 399q-21 21-36 57t-15 65v232q0 29 21 50t50 22h233q29 0 65-15t57-36l399-399q20-21 20-50z m215 0q0-30-21-51l-274-274q-22-21-51-21-20 0-33 8t-29 25l262 262q21 21 21 51 0 29-21 50l-399 399q-21 21-57 36t-65 15h125q29 0 65-15t57-36l399-399q21-21 21-50z" horiz-adv-x="1071.4" />

<glyph glyph-name="bookmark" unicode="&#xe824;" d="M650 779q12 0 24-5 19-8 29-23t11-35v-719q0-19-11-35t-29-23q-10-4-24-4-27 0-47 18l-246 236-246-236q-20-19-46-19-13 0-25 5-18 7-29 23t-11 35v719q0 19 11 35t29 23q12 5 25 5h585z" horiz-adv-x="714.3" />

<glyph glyph-name="flag" unicode="&#xe825;" d="M179 707q0-40-36-61v-707q0-7-5-12t-13-6h-36q-7 0-12 6t-6 12v707q-35 21-35 61 0 30 21 51t50 21 51-21 21-51z m821-36v-425q0-14-7-22t-22-15q-120-65-206-65-34 0-69 12t-60 27-65 27-79 12q-107 0-259-81-10-5-19-5-14 0-25 10t-10 25v415q0 17 17 30 12 8 44 24 132 67 235 67 60 0 112-16t122-49q21-11 49-11 30 0 65 12t62 26 49 26 30 12q15 0 25-10t11-26z" horiz-adv-x="1000" />

<glyph glyph-name="thumbs-up" unicode="&#xe826;" d="M143 100q0 15-11 25t-25 11-25-11-11-25 11-25 25-11 25 11 11 25z m643 321q0 29-22 50t-50 22h-196q0 32 27 89t26 89q0 55-17 81t-72 27q-14-15-21-48t-17-70-33-61q-13-13-43-51-2-3-13-16t-18-23-19-24-22-25-22-19-22-15-20-6h-18v-357h18q7 0 18-1t18-4 21-6 20-7 20-6 16-6q118-41 191-41h67q107 0 107 93 0 15-2 31 16 9 26 30t10 41-10 38q29 28 29 67 0 14-5 31t-14 26q18 1 30 26t12 45z m71 1q0-50-27-91 5-18 5-38 0-43-21-81 1-12 1-24 0-56-33-99 0-78-48-123t-126-45h-72q-54 0-106 13t-121 36q-65 23-77 23h-161q-29 0-50 21t-21 50v357q0 30 21 51t50 21h153q20 13 77 86 32 42 60 72 13 14 19 48t17 70 35 60q22 21 50 21 47 0 84-18t57-57 20-104q0-51-27-107h98q58 0 101-42t42-100z" horiz-adv-x="857.1" />

<glyph glyph-name="thumbs-down" unicode="&#xe827;" d="M143 600q0 15-11 25t-25 11-25-11-11-25 11-25 25-11 25 11 11 25z m643-321q0 19-12 45t-30 26q8 10 14 27t5 31q0 38-29 66 10 17 10 38 0 21-10 41t-26 30q2 16 2 31 0 47-27 70t-76 23h-71q-73 0-191-41-3-1-16-5t-20-7-20-7-21-6-18-4-18-1h-18v-357h18q9 0 20-5t22-15 22-20 22-25 19-24 18-22 13-17q30-38 43-51 23-24 33-61t17-70 21-48q54 0 72 27t17 81q0 33-26 89t-27 89h196q28 0 50 22t22 50z m71-1q0-57-42-100t-101-42h-98q27-55 27-107 0-66-20-104-19-39-57-57t-84-18q-28 0-50 21-19 18-30 45t-14 51-10 47-17 36q-27 28-60 71-57 73-77 86h-153q-29 0-50 21t-21 51v357q0 29 21 50t50 21h161q12 0 77 23 72 24 125 36t111 13h63q78 0 126-44t48-121v-3q33-43 33-99 0-12-1-24 21-38 21-80 0-21-5-39 27-41 27-91z" horiz-adv-x="857.1" />

<glyph glyph-name="download" unicode="&#xe828;" d="M714 100q0 15-10 25t-25 11-25-11-11-25 11-25 25-11 25 11 10 25z m143 0q0 15-10 25t-26 11-25-11-10-25 10-25 25-11 26 11 10 25z m72 125v-179q0-22-16-37t-38-16h-821q-23 0-38 16t-16 37v179q0 22 16 38t38 16h259l75-76q33-32 76-32t76 32l76 76h259q22 0 38-16t16-38z m-182 318q10-23-8-39l-250-250q-10-11-25-11t-25 11l-250 250q-17 16-8 39 10 21 33 21h143v250q0 15 11 25t25 11h143q14 0 25-11t10-25v-250h143q24 0 33-21z" horiz-adv-x="928.6" />

<glyph glyph-name="upload" unicode="&#xe829;" d="M714 29q0 14-10 25t-25 10-25-10-11-25 11-25 25-11 25 11 10 25z m143 0q0 14-10 25t-26 10-25-10-10-25 10-25 25-11 26 11 10 25z m72 125v-179q0-22-16-38t-38-16h-821q-23 0-38 16t-16 38v179q0 22 16 38t38 15h238q12-31 39-51t62-20h143q34 0 61 20t40 51h238q22 0 38-15t16-38z m-182 361q-9-22-33-22h-143v-250q0-15-10-25t-25-11h-143q-15 0-25 11t-11 25v250h-143q-23 0-33 22-9 22 8 39l250 250q10 10 25 10t25-10l250-250q18-17 8-39z" horiz-adv-x="928.6" />

<glyph glyph-name="forward" unicode="&#xe82a;" d="M1000 493q0-15-11-25l-285-286q-11-11-25-11t-25 11-11 25v143h-125q-55 0-98-3t-86-12-74-24-59-39-45-56-27-77-10-101q0-31 3-69 0-4 2-13t1-15q0-8-5-14t-13-6q-9 0-15 10-4 5-8 12t-7 17-6 13q-71 159-71 252 0 111 30 186 90 225 488 225h125v143q0 14 11 25t25 10 25-10l285-286q11-11 11-25z" horiz-adv-x="1000" />

<glyph glyph-name="export" unicode="&#xe82b;" d="M786 298v-144q0-67-47-114t-114-47h-464q-67 0-114 47t-47 114v464q0 66 47 113t114 48h142q7 0 13-6t5-12q0-15-15-18-43-15-74-34-5-2-9-2h-62q-37 0-63-26t-27-63v-464q0-37 27-63t63-27h464q37 0 63 27t26 63v119q0 11 10 16 16 7 31 21 8 9 19 4 12-5 12-16z m132 277l-214-214q-10-11-25-11-7 0-14 3-22 9-22 33v107h-89q-181 0-245-73-66-77-41-264 2-13-11-19-5-1-7-1-9 0-14 7-6 8-12 17t-22 39-28 55-21 64-10 68q0 27 2 51t8 50 15 49 27 45 38 42 52 34 70 27 89 17 110 6h89v107q0 24 22 33 7 3 14 3 14 0 25-11l214-214q11-10 11-25t-11-25z" horiz-adv-x="928.6" />

<glyph glyph-name="pencil" unicode="&#xe82c;" d="M203-7l50 51-131 131-51-51v-60h72v-71h60z m291 518q0 12-12 12-5 0-9-4l-303-302q-4-4-4-10 0-12 13-12 5 0 9 4l303 302q3 4 3 10z m-30 107l232-232-464-465h-232v233z m381-54q0-29-20-50l-93-93-232 233 93 92q20 21 50 21 29 0 51-21l131-131q20-22 20-51z" horiz-adv-x="857.1" />

<glyph glyph-name="edit" unicode="&#xe82d;" d="M496 189l64 65-85 85-64-65v-31h53v-54h32z m245 402q-9 9-18 0l-196-196q-9-9 0-18t18 0l196 196q9 9 0 18z m45-331v-106q0-67-47-114t-114-47h-464q-67 0-114 47t-47 114v464q0 66 47 113t114 48h464q35 0 65-14 9-4 10-13 2-10-5-16l-27-28q-8-8-18-4-13 3-25 3h-464q-37 0-63-26t-27-63v-464q0-37 27-63t63-27h464q37 0 63 27t26 63v70q0 7 5 12l36 36q8 8 20 4t11-16z m-54 411l161-160-375-375h-161v160z m248-73l-51-52-161 161 51 52q16 15 38 15t38-15l85-85q16-16 16-38t-16-38z" horiz-adv-x="1000" />

<glyph glyph-name="print" unicode="&#xe82e;" d="M214-7h500v143h-500v-143z m0 357h500v214h-89q-22 0-38 16t-16 38v89h-357v-357z m643-36q0 15-10 25t-26 11-25-11-10-25 10-25 25-10 26 10 10 25z m72 0v-232q0-7-6-12t-12-6h-125v-89q0-22-16-38t-38-16h-536q-22 0-37 16t-16 38v89h-125q-7 0-13 6t-5 12v232q0 44 32 76t75 31h36v304q0 22 16 38t37 16h375q23 0 50-12t42-26l85-85q15-16 27-43t11-49v-143h35q45 0 76-31t32-76z" horiz-adv-x="928.6" />

<glyph glyph-name="retweet" unicode="&#xe82f;" d="M714 11q0-7-5-13t-13-5h-535q-5 0-8 1t-5 4-3 4-2 7 0 6v335h-107q-15 0-25 11t-11 25q0 13 8 23l179 214q11 12 27 12t28-12l178-214q9-10 9-23 0-15-11-25t-25-11h-107v-214h321q9 0 14-6l89-108q4-5 4-11z m357 232q0-13-8-23l-178-214q-12-13-28-13t-27 13l-179 214q-8 10-8 23 0 14 11 25t25 11h107v214h-322q-9 0-14 7l-89 107q-4 5-4 11 0 7 5 12t13 6h536q4 0 7-1t5-4 3-5 2-6 1-7v-334h107q14 0 25-11t10-25z" horiz-adv-x="1071.4" />

<glyph glyph-name="comment" unicode="&#xe830;" d="M1000 350q0-97-67-179t-182-130-251-48q-39 0-81 4-110-97-257-135-27-8-63-12-10-1-17 5t-10 16v1q-2 2 0 6t1 6 2 5l4 5t4 5 4 5q4 5 17 19t20 22 17 22 18 28 15 33 15 42q-88 50-138 123t-51 157q0 73 40 139t106 114 160 76 194 28q136 0 251-48t182-130 67-179z" horiz-adv-x="1000" />

<glyph glyph-name="chat" unicode="&#xe831;" d="M786 421q0-77-53-143t-143-104-197-38q-48 0-98 9-70-49-155-72-21-5-48-9h-2q-6 0-12 5t-6 12q-1 1-1 3t1 4 1 3l1 3t2 3 2 3 3 3 2 2q3 3 13 14t15 16 12 17 14 21 11 25q-69 40-108 98t-40 125q0 78 53 144t143 104 197 38 197-38 143-104 53-144z m214-142q0-67-40-126t-108-98q5-14 11-25t14-21 13-16 14-17 13-14q0 0 2-2t3-3 2-3 2-3l1-3t1-3 1-4-1-3q-2-8-7-13t-12-4q-28 4-48 9-86 23-156 72-50-9-98-9-151 0-263 74 32-3 49-3 90 0 172 25t148 72q69 52 107 119t37 141q0 43-13 85 72-39 114-99t42-128z" horiz-adv-x="1000" />

<glyph glyph-name="bell" unicode="&#xe832;" d="M509-96q0 8-9 8-33 0-57 24t-23 57q0 9-9 9t-9-9q0-41 29-70t69-28q9 0 9 9z m-372 160h726q-149 168-149 465 0 28-13 58t-39 58-67 45-95 17-95-17-67-45-39-58-13-58q0-297-149-465z m827 0q0-29-21-50t-50-21h-250q0-59-42-101t-101-42-101 42-42 101h-250q-29 0-50 21t-21 50q28 24 51 49t47 67 42 89 27 115 11 145q0 84 66 157t171 89q-5 10-5 21 0 23 16 38t38 16 38-16 16-38q0-11-5-21 106-16 171-89t66-157q0-78 11-145t28-115 41-89 48-67 50-49z" horiz-adv-x="1000" />

<glyph glyph-name="attention" unicode="&#xe833;" d="M571 83v106q0 8-5 13t-12 5h-108q-7 0-12-5t-5-13v-106q0-8 5-13t12-6h108q7 0 12 6t5 13z m-1 208l10 257q0 6-5 10-7 6-14 6h-122q-6 0-14-6-5-4-5-12l9-255q0-5 6-9t13-3h103q8 0 14 3t5 9z m-7 522l428-786q20-35-1-70-9-17-26-26t-35-10h-858q-18 0-35 10t-26 26q-21 35-1 70l429 786q9 17 26 27t36 10 36-10 27-27z" horiz-adv-x="1000" />

<glyph glyph-name="attention-circled" unicode="&#xe834;" d="M429 779q116 0 215-58t156-156 57-215-57-215-156-156-215-58-216 58-155 156-58 215 58 215 155 156 216 58z m71-696v106q0 8-5 13t-12 5h-107q-8 0-13-5t-6-13v-106q0-8 6-13t13-6h107q7 0 12 6t5 13z m-1 192l10 346q0 7-6 10-5 5-13 5h-123q-8 0-13-5-6-3-6-10l10-346q0-6 5-10t14-4h103q8 0 13 4t6 10z" horiz-adv-x="857.1" />

<glyph glyph-name="location" unicode="&#xe835;" d="M429 493q0 59-42 101t-101 42-101-42-42-101 42-101 101-42 101 42 42 101z m142 0q0-61-18-100l-203-432q-9-18-27-29t-37-11-38 11-26 29l-204 432q-18 39-18 100 0 118 84 202t202 84 202-84 83-202z" horiz-adv-x="571.4" />

<glyph glyph-name="trash-empty" unicode="&#xe836;" d="M286 439v-321q0-8-5-13t-13-5h-36q-8 0-13 5t-5 13v321q0 8 5 13t13 5h36q8 0 13-5t5-13z m143 0v-321q0-8-5-13t-13-5h-36q-8 0-13 5t-5 13v321q0 8 5 13t13 5h36q8 0 13-5t5-13z m142 0v-321q0-8-5-13t-12-5h-36q-8 0-13 5t-5 13v321q0 8 5 13t13 5h36q7 0 12-5t5-13z m72-404v529h-500v-529q0-12 4-22t8-15 6-5h464q2 0 6 5t8 15 4 22z m-375 601h250l-27 65q-4 5-9 6h-177q-6-1-10-6z m518-18v-36q0-8-5-13t-13-5h-54v-529q0-46-26-80t-63-34h-464q-37 0-63 33t-27 79v531h-53q-8 0-13 5t-5 13v36q0 8 5 13t13 5h172l39 93q9 21 31 35t44 15h178q23 0 44-15t30-35l39-93h173q8 0 13-5t5-13z" horiz-adv-x="785.7" />

<glyph glyph-name="doc" unicode="&#xe837;" d="M819 638q16-16 27-42t11-50v-642q0-23-15-38t-38-16h-750q-23 0-38 16t-16 38v892q0 23 16 38t38 16h500q22 0 49-11t42-27z m-248 136v-210h210q-5 17-12 23l-175 175q-6 7-23 12z m215-853v572h-232q-23 0-38 16t-16 37v233h-429v-858h715z" horiz-adv-x="857.1" />

<glyph glyph-name="folder" unicode="&#xe838;" d="M929 511v-393q0-51-37-88t-88-37h-679q-51 0-88 37t-37 88v536q0 51 37 88t88 37h179q51 0 88-37t37-88v-18h375q51 0 88-37t37-88z" horiz-adv-x="928.6" />

<glyph glyph-name="folder-open" unicode="&#xe839;" d="M1049 319q0-17-18-37l-187-221q-24-28-67-48t-81-20h-607q-19 0-33 7t-15 24q0 17 17 37l188 221q24 28 67 48t80 20h607q19 0 34-7t15-24z m-192 192v-90h-464q-53 0-110-26t-92-67l-188-221-2-3q0 2-1 7t0 7v536q0 51 37 88t88 37h179q51 0 88-37t37-88v-18h303q52 0 88-37t37-88z" horiz-adv-x="1071.4" />

<glyph glyph-name="phone" unicode="&#xe83a;" d="M786 158q0-15-6-39t-12-38q-11-28-68-60-52-28-103-28-15 0-30 2t-32 7-26 8-31 11-28 10q-54 20-97 47-71 44-148 120t-120 148q-27 43-46 97-2 5-10 28t-12 31-8 26-7 32-2 29q0 52 29 104 31 57 59 68 14 6 38 12t39 6q8 0 12-2 10-3 30-42 6-11 16-31t20-35 17-30q2-2 10-14t12-20 4-16q0-11-16-27t-35-31-34-30-16-25q0-5 3-13t4-11 8-14 7-10q42-77 97-132t131-97q1 0 10-6t14-8 11-5 13-2q10 0 25 16t30 34 31 35 28 16q7 0 15-4t20-12 14-10q14-8 30-17t36-20 30-17q39-19 42-29 2-4 2-12z" horiz-adv-x="785.7" />

<glyph glyph-name="cog" unicode="&#xe83b;" d="M571 350q0 59-41 101t-101 42-101-42-42-101 42-101 101-42 101 42 41 101z m286 61v-124q0-7-4-13t-11-7l-104-16q-10-30-21-51 19-27 59-77 6-6 6-13t-5-13q-15-21-55-61t-53-39q-7 0-14 5l-77 60q-25-13-51-21-9-76-16-104-4-16-20-16h-124q-8 0-14 5t-6 12l-16 103q-27 9-50 21l-79-60q-6-5-14-5-8 0-14 6-70 64-92 94-4 5-4 13 0 6 5 12 8 12 28 37t30 40q-15 28-23 55l-102 15q-7 1-11 7t-5 13v124q0 7 5 13t10 7l104 16q8 25 22 51-23 32-60 77-6 7-6 14 0 5 5 12 15 20 55 60t53 40q7 0 15-5l77-60q24 13 50 21 9 76 17 104 3 16 20 16h124q7 0 13-5t7-12l15-103q28-9 51-20l79 59q5 5 13 5 7 0 14-5 72-67 92-95 4-5 4-12 0-7-4-13-9-12-29-37t-30-40q15-28 23-54l102-16q7-1 12-7t4-13z" horiz-adv-x="857.1" />

<glyph glyph-name="cog-alt" unicode="&#xe83c;" d="M500 350q0 59-42 101t-101 42-101-42-42-101 42-101 101-42 101 42 42 101z m429-286q0 29-22 51t-50 21-50-21-21-51q0-29 21-50t50-21 51 21 21 50z m0 572q0 29-22 50t-50 21-50-21-21-50q0-30 21-51t50-21 51 21 21 51z m-215-235v-103q0-6-4-11t-8-6l-87-14q-6-19-18-42 19-27 50-64 4-6 4-11 0-7-4-11-12-17-46-50t-43-33q-7 0-12 4l-64 50q-21-11-43-17-6-60-13-87-4-13-17-13h-104q-6 0-11 4t-5 10l-13 85q-19 6-42 18l-66-50q-4-4-11-4-6 0-12 4-80 75-80 90 0 5 4 10 5 8 23 30t26 34q-13 24-20 46l-85 13q-5 1-9 5t-4 11v104q0 5 4 10t9 6l86 14q7 19 18 42-19 27-50 64-4 6-4 11 0 7 4 12 12 16 46 49t44 33q6 0 12-4l64-50q19 10 43 18 6 60 13 86 3 13 16 13h104q6 0 11-4t6-10l13-85q19-6 42-17l65 49q5 4 12 4 6 0 11-4 81-75 81-90 0-4-4-10-7-9-24-30t-25-34q13-27 19-46l85-12q6-2 9-6t4-11z m357-298v-78q0-9-83-17-6-15-16-29 28-63 28-77 0-2-2-4-68-40-69-40-5 0-26 27t-29 37q-11-1-17-1t-17 1q-7-11-29-37t-25-27q-1 0-69 40-3 2-3 4 0 14 29 77-10 14-17 29-83 8-83 17v78q0 9 83 18 7 16 17 29-29 63-29 77 0 2 3 4 2 1 19 11t33 19 17 9q4 0 25-26t29-38q12 1 17 1t17-1q28 40 51 63l4 1q2 0 69-39 2-2 2-4 0-14-28-77 9-13 16-29 83-9 83-18z m0 572v-78q0-9-83-18-6-15-16-29 28-63 28-77 0-2-2-4-68-39-69-39-5 0-26 26t-29 38q-11-1-17-1t-17 1q-7-12-29-38t-25-26q-1 0-69 39-3 2-3 4 0 14 29 77-10 14-17 29-83 9-83 18v78q0 9 83 17 7 16 17 29-29 63-29 77 0 2 3 4 2 1 19 11t33 19 17 9q4 0 25-26t29-37q12 1 17 1t17-1q28 39 51 62l4 1q2 0 69-39 2-2 2-4 0-14-28-77 9-13 16-29 83-8 83-17z" horiz-adv-x="1071.4" />

<glyph glyph-name="wrench" unicode="&#xe83d;" d="M214 29q0 14-10 25t-25 10-25-10-11-25 11-25 25-11 25 11 10 25z m360 234l-381-381q-21-20-50-20-29 0-51 20l-59 61q-21 20-21 50 0 29 21 51l380 380q22-55 64-97t97-64z m354 243q0-22-13-59-27-75-92-122t-144-46q-104 0-177 73t-73 177 73 176 177 74q32 0 67-10t60-26q9-6 9-15t-9-16l-163-94v-125l108-60q2 2 44 27t75 45 40 20q8 0 13-5t5-14z" horiz-adv-x="928.6" />

<glyph glyph-name="basket" unicode="&#xe83e;" d="M357-7q0-29-21-50t-50-22-50 22-22 50 22 50 50 21 50-21 21-50z m500 0q0-29-21-50t-50-22-50 22-22 50 22 50 50 21 50-21 21-50z m72 607v-286q0-13-10-23t-22-12l-583-68q7-34 7-40 0-8-13-35h513q15 0 26-11t10-25-10-25-26-11h-571q-14 0-25 11t-11 25q0 6 5 18t9 20 12 22 8 17l-98 459h-114q-15 0-25 10t-11 25 11 26 25 10h143q9 0 16-3t10-9 8-14 4-14 3-17 3-14h670q14 0 25-11t11-25z" horiz-adv-x="928.6" />

<glyph glyph-name="calendar" unicode="&#xe83f;" d="M71-79h161v161h-161v-161z m197 0h178v161h-178v-161z m-197 197h161v178h-161v-178z m197 0h178v178h-178v-178z m-197 214h161v161h-161v-161z m411-411h179v161h-179v-161z m-214 411h178v161h-178v-161z m428-411h161v161h-161v-161z m-214 197h179v178h-179v-178z m-196 482v161q0 7-6 12t-12 6h-36q-7 0-12-6t-6-12v-161q0-7 6-13t12-5h36q7 0 12 5t6 13z m410-482h161v178h-161v-178z m-214 214h179v161h-179v-161z m214 0h161v161h-161v-161z m18 268v161q0 7-5 12t-13 6h-35q-7 0-13-6t-5-12v-161q0-7 5-13t13-5h35q8 0 13 5t5 13z m215 36v-715q0-29-22-50t-50-21h-786q-29 0-50 21t-21 50v715q0 29 21 50t50 21h72v54q0 37 26 63t63 26h36q37 0 63-26t26-63v-54h214v54q0 37 27 63t63 26h35q37 0 64-26t26-63v-54h71q29 0 50-21t22-50z" horiz-adv-x="928.6" />

<glyph glyph-name="login" unicode="&#xe840;" d="M661 350q0-14-11-25l-303-304q-11-10-26-10t-25 10-10 25v161h-250q-15 0-25 11t-11 25v214q0 15 11 25t25 11h250v161q0 14 10 25t25 10 26-10l303-304q11-10 11-25z m196 196v-392q0-67-47-114t-114-47h-178q-7 0-13 5t-5 13q0 2-1 11t0 15 2 13 5 11 12 3h178q37 0 64 27t26 63v392q0 37-26 64t-64 26h-174t-6 0-6 2-5 3-4 5-1 8q0 2-1 11t0 15 2 13 5 11 12 3h178q67 0 114-47t47-114z" horiz-adv-x="857.1" />

<glyph glyph-name="logout" unicode="&#xe841;" d="M357 46q0-2 1-11t0-14-2-14-5-11-12-3h-178q-67 0-114 47t-47 114v392q0 67 47 114t114 47h178q8 0 13-5t5-13q0-2 1-11t0-15-2-13-5-11-12-3h-178q-37 0-63-26t-27-64v-392q0-37 27-63t63-27h174t6 0 7-2 4-3 4-5 1-8z m518 304q0-14-11-25l-303-304q-11-10-25-10t-25 10-11 25v161h-250q-14 0-25 11t-11 25v214q0 15 11 25t25 11h250v161q0 14 11 25t25 10 25-10l303-304q11-10 11-25z" horiz-adv-x="928.6" />

<glyph glyph-name="volume-off" unicode="&#xe842;" d="M429 654v-608q0-14-11-25t-25-10-25 10l-186 186h-146q-15 0-25 11t-11 25v214q0 15 11 25t25 11h146l186 186q10 10 25 10t25-10 11-25z" horiz-adv-x="428.6" />

<glyph glyph-name="volume-down" unicode="&#xe843;" d="M429 654v-608q0-14-11-25t-25-10-25 10l-186 186h-146q-15 0-25 11t-11 25v214q0 15 11 25t25 11h146l186 186q10 10 25 10t25-10 11-25z m214-304q0-42-24-79t-63-52q-5-3-14-3-14 0-25 10t-10 26q0 12 6 20t17 14 19 12 16 21 6 31-6 32-16 20-19 13-17 13-6 20q0 15 10 26t25 10q9 0 14-3 39-15 63-52t24-79z" horiz-adv-x="642.9" />

<glyph glyph-name="volume-up" unicode="&#xe844;" d="M429 654v-608q0-14-11-25t-25-10-25 10l-186 186h-146q-15 0-25 11t-11 25v214q0 15 11 25t25 11h146l186 186q10 10 25 10t25-10 11-25z m214-304q0-42-24-79t-63-52q-5-3-14-3-14 0-25 10t-10 26q0 12 6 20t17 14 19 12 16 21 6 31-6 32-16 20-19 13-17 13-6 20q0 15 10 26t25 10q9 0 14-3 39-15 63-52t24-79z m143 0q0-85-48-158t-125-105q-7-3-14-3-15 0-26 11t-10 25q0 22 21 33 32 16 43 25 41 30 64 75t23 97-23 97-64 75q-11 9-43 25-21 11-21 33 0 14 10 25t25 11q8 0 15-3 78-33 125-105t48-158z m143 0q0-128-71-236t-189-158q-7-3-14-3-15 0-25 11t-11 25q0 20 22 33 4 2 12 6t13 6q25 14 46 28 68 51 107 127t38 161-38 161-107 127q-21 15-46 28-4 3-13 6t-12 6q-22 13-22 33 0 15 11 25t25 11q7 0 14-3 118-51 189-158t71-236z" horiz-adv-x="928.6" />

<glyph glyph-name="headphones" unicode="&#xe845;" d="M929 356q0-93-34-176l-11-27-103-18q-13-47-51-77t-87-29v-18q0-8-5-13t-13-5h-36q-7 0-12 5t-6 13v321q0 8 6 13t12 5h36q8 0 13-5t5-13v-18q40 0 72-19t52-54l38 7q16 53 16 108 0 82-49 155t-132 117-176 43-176-43-132-117-49-155q0-55 16-108l38-7q19 34 52 54t73 19v18q0 8 5 13t13 5h35q8 0 13-5t5-13v-321q0-8-5-13t-13-5h-35q-8 0-13 5t-5 13v18q-49 0-88 29t-50 77l-103 18-11 27q-34 83-34 176 0 84 37 162t100 135 149 92 178 34 179-34 148-92 100-135 38-162z" horiz-adv-x="928.6" />

<glyph glyph-name="clock" unicode="&#xe846;" d="M500 546v-250q0-7-5-12t-13-5h-178q-8 0-13 5t-5 12v36q0 8 5 13t13 5h125v196q0 8 5 13t12 5h36q8 0 13-5t5-13z m232-196q0 83-41 152t-110 111-152 41-153-41-110-111-41-152 41-152 110-111 153-41 152 41 110 111 41 152z m125 0q0-117-57-215t-156-156-215-58-216 58-155 156-58 215 58 215 155 156 216 58 215-58 156-156 57-215z" horiz-adv-x="857.1" />

<glyph glyph-name="block" unicode="&#xe847;" d="M732 352q0 90-48 164l-421-420q76-50 166-50 62 0 118 25t96 65 65 97 24 119z m-557-167l421 421q-75 50-167 50-83 0-153-40t-110-111-41-153q0-91 50-167z m682 167q0-88-34-168t-91-137-137-92-166-34-167 34-137 92-91 137-34 168 34 167 91 137 137 91 167 34 166-34 137-91 91-137 34-167z" horiz-adv-x="857.1" />

<glyph glyph-name="resize-full" unicode="&#xe848;" d="M421 261q0-7-5-13l-185-185 80-81q10-10 10-25t-10-25-25-11h-250q-15 0-25 11t-11 25v250q0 15 11 25t25 11 25-11l80-80 186 185q5 6 12 6t13-6l64-63q5-6 5-13z m436 482v-250q0-15-10-25t-26-11-25 11l-80 80-185-185q-6-6-13-6t-13 6l-64 64q-5 5-5 12t5 13l186 185-81 81q-10 10-10 25t10 25 25 11h250q15 0 26-11t10-25z" horiz-adv-x="857.1" />

<glyph glyph-name="resize-small" unicode="&#xe849;" d="M429 314v-250q0-14-11-25t-25-10-25 10l-81 81-185-186q-5-5-13-5t-12 5l-64 64q-6 6-6 13t6 13l185 185-80 80q-11 11-11 25t11 25 25 11h250q14 0 25-11t11-25z m421 375q0-7-6-12l-185-186 80-80q11-11 11-25t-11-25-25-11h-250q-14 0-25 11t-10 25v250q0 14 10 25t25 10 25-10l81-80 185 185q6 5 13 5t13-5l63-64q6-5 6-13z" horiz-adv-x="857.1" />

<glyph glyph-name="resize-vertical" unicode="&#xe84a;" d="M393 671q0-14-11-25t-25-10h-71v-572h71q15 0 25-10t11-25-11-25l-143-143q-10-11-25-11t-25 11l-143 143q-10 10-10 25t10 25 25 10h72v572h-72q-14 0-25 10t-10 25 10 26l143 142q11 11 25 11t25-11l143-142q11-11 11-26z" horiz-adv-x="428.6" />

<glyph glyph-name="resize-horizontal" unicode="&#xe84b;" d="M1000 350q0-14-11-25l-142-143q-11-11-26-11t-25 11-10 25v72h-572v-72q0-14-10-25t-25-11-25 11l-143 143q-11 11-11 25t11 25l143 143q10 11 25 11t25-11 10-25v-72h572v72q0 14 10 25t25 11 26-11l142-143q11-10 11-25z" horiz-adv-x="1000" />

<glyph glyph-name="zoom-in" unicode="&#xe84c;" d="M571 404v-36q0-7-5-13t-12-5h-125v-125q0-7-6-13t-12-5h-36q-7 0-13 5t-5 13v125h-125q-7 0-12 5t-6 13v36q0 7 6 12t12 5h125v125q0 8 5 13t13 5h36q7 0 12-5t6-13v-125h125q7 0 12-5t5-12z m72-18q0 103-73 176t-177 74-177-74-73-176 73-177 177-73 177 73 73 177z m286-465q0-29-21-50t-51-21q-30 0-50 21l-191 191q-100-69-223-69-80 0-153 31t-125 84-84 125-31 153 31 152 84 126 125 84 153 31 153-31 125-84 84-126 31-152q0-123-69-223l191-191q21-21 21-51z" horiz-adv-x="928.6" />

<glyph glyph-name="zoom-out" unicode="&#xe84d;" d="M571 404v-36q0-7-5-13t-12-5h-322q-7 0-12 5t-6 13v36q0 7 6 12t12 5h322q7 0 12-5t5-12z m72-18q0 103-73 176t-177 74-177-74-73-176 73-177 177-73 177 73 73 177z m286-465q0-29-21-50t-51-21q-30 0-50 21l-191 191q-100-69-223-69-80 0-153 31t-125 84-84 125-31 153 31 152 84 126 125 84 153 31 153-31 125-84 84-126 31-152q0-123-69-223l191-191q21-21 21-51z" horiz-adv-x="928.6" />

<glyph glyph-name="down-circled2" unicode="&#xe84e;" d="M625 332q0-7-6-13l-178-178q-6-5-12-5t-13 5l-179 178q-8 9-4 20 5 11 17 11h107v196q0 8 5 13t13 5h107q8 0 13-5t5-13v-196h107q8 0 13-5t5-13z m-196 322q-83 0-153-41t-110-111-41-152 41-152 110-111 153-41 152 41 110 111 41 152-41 152-110 111-152 41z m428-304q0-117-57-215t-156-156-215-58-216 58-155 156-58 215 58 215 155 156 216 58 215-58 156-156 57-215z" horiz-adv-x="857.1" />

<glyph glyph-name="up-circled2" unicode="&#xe84f;" d="M624 361q-5-11-17-11h-107v-196q0-8-5-13t-13-5h-107q-8 0-13 5t-5 13v196h-107q-8 0-13 5t-5 13q0 7 6 13l178 178q6 5 13 5t12-5l179-178q8-9 4-20z m-195 293q-83 0-153-41t-110-111-41-152 41-152 110-111 153-41 152 41 110 111 41 152-41 152-110 111-152 41z m428-304q0-117-57-215t-156-156-215-58-216 58-155 156-58 215 58 215 155 156 216 58 215-58 156-156 57-215z" horiz-adv-x="857.1" />

<glyph glyph-name="down-dir" unicode="&#xe850;" d="M571 457q0-14-10-25l-250-250q-11-11-25-11t-25 11l-250 250q-11 11-11 25t11 25 25 11h500q14 0 25-11t10-25z" horiz-adv-x="571.4" />

<glyph glyph-name="up-dir" unicode="&#xe851;" d="M571 171q0-14-10-25t-25-10h-500q-15 0-25 10t-11 25 11 26l250 250q10 10 25 10t25-10l250-250q10-11 10-26z" horiz-adv-x="571.4" />

<glyph glyph-name="left-dir" unicode="&#xe852;" d="M357 600v-500q0-14-10-25t-26-11-25 11l-250 250q-10 11-10 25t10 25l250 250q11 11 25 11t26-11 10-25z" horiz-adv-x="357.1" />

<glyph glyph-name="right-dir" unicode="&#xe853;" d="M321 350q0-14-10-25l-250-250q-11-11-25-11t-25 11-11 25v500q0 15 11 25t25 11 25-11l250-250q10-10 10-25z" horiz-adv-x="357.1" />

<glyph glyph-name="down-open" unicode="&#xe854;" d="M939 399l-414-413q-10-11-25-11t-25 11l-414 413q-11 11-11 26t11 25l93 92q10 11 25 11t25-11l296-296 296 296q11 11 25 11t26-11l92-92q11-11 11-25t-11-26z" horiz-adv-x="1000" />

<glyph glyph-name="left-open" unicode="&#xe855;" d="M654 682l-297-296 297-297q10-10 10-25t-10-25l-93-93q-11-10-25-10t-25 10l-414 415q-11 10-11 25t11 25l414 414q10 11 25 11t25-11l93-93q10-10 10-25t-10-25z" horiz-adv-x="714.3" />

<glyph glyph-name="right-open" unicode="&#xe856;" d="M618 361l-414-415q-11-10-25-10t-25 10l-93 93q-11 11-11 25t11 25l296 297-296 296q-11 11-11 25t11 25l93 93q10 11 25 11t25-11l414-414q10-11 10-25t-10-25z" horiz-adv-x="714.3" />

<glyph glyph-name="up-open" unicode="&#xe857;" d="M939 107l-92-92q-11-10-26-10t-25 10l-296 297-296-297q-11-10-25-10t-25 10l-93 92q-11 11-11 26t11 25l414 414q11 10 25 10t25-10l414-414q11-11 11-25t-11-26z" horiz-adv-x="1000" />

<glyph glyph-name="down-big" unicode="&#xe858;" d="M899 386q0-30-21-50l-363-364q-22-21-51-21-29 0-50 21l-363 364q-21 20-21 50 0 29 21 51l41 41q22 21 51 21 29 0 50-21l164-164v393q0 29 21 50t51 22h71q29 0 50-22t21-50v-393l165 164q20 21 50 21 29 0 51-21l41-41q21-22 21-51z" horiz-adv-x="928.6" />

<glyph glyph-name="left-big" unicode="&#xe859;" d="M857 350v-71q0-30-18-51t-47-21h-393l164-164q21-20 21-50t-21-50l-42-43q-21-20-51-20-29 0-50 20l-364 364q-20 21-20 50 0 29 20 51l364 363q21 21 50 21 29 0 51-21l42-41q21-22 21-51t-21-51l-164-164h393q29 0 47-20t18-51z" horiz-adv-x="857.1" />

<glyph glyph-name="right-big" unicode="&#xe85a;" d="M821 314q0-30-20-50l-363-364q-22-20-51-20-29 0-50 20l-42 42q-22 21-22 51t22 51l163 163h-393q-29 0-47 21t-18 51v71q0 30 18 51t47 20h393l-163 165q-22 20-22 50t22 50l42 42q21 21 50 21 29 0 51-21l363-363q20-20 20-51z" horiz-adv-x="857.1" />

<glyph glyph-name="up-big" unicode="&#xe85b;" d="M899 308q0-28-21-50l-41-42q-22-21-51-21-30 0-50 21l-165 164v-393q0-29-20-47t-51-19h-71q-30 0-51 19t-21 47v393l-164-164q-20-21-50-21t-50 21l-42 42q-21 21-21 50 0 30 21 51l363 363q20 21 50 21 30 0 51-21l363-363q21-22 21-51z" horiz-adv-x="928.6" />

<glyph glyph-name="right-hand" unicode="&#xe85c;" d="M143 100q0 15-11 25t-25 11-25-11-11-25 11-25 25-11 25 11 11 25z m786 321q0 29-22 50t-50 22h-321q0 11 8 27t19 31 18 38 8 47q0 37-24 54t-65 17q-13 0-50-77-14-25-21-37-22-35-62-81-40-45-57-59-38-32-78-32h-18v-357h18q40 0 93-18t108-35 101-18q105 0 105 93 0 15-3 31 17 9 27 30t9 41-10 38q30 28 30 67 0 14-6 31t-14 26h185q29 0 50 21t22 50z m71 1q0-59-42-101t-101-42h-94q-2-35-21-67 2-12 2-24 0-56-34-99 1-78-47-123t-127-45q-74 0-179 39-92 33-125 33h-161q-29 0-50 21t-21 50v357q0 30 21 51t50 21h161q6 0 12 2t13 8 13 10 13 13 12 12 10 12 8 9q36 42 56 72 7 12 18 35t21 40 23 35 30 28 39 10q70 0 115-38t46-105q0-38-13-72h209q58 0 101-42t42-100z" horiz-adv-x="1000" />

<glyph glyph-name="left-hand" unicode="&#xe85d;" d="M768 64h18v357h-18q-20 0-38 7t-35 21-28 25-27 31q-4 5-7 7-40 46-62 81-8 13-21 38-1 2-6 13t-10 20-12 20-12 17-10 6q-40 0-64-17t-25-54q0-24 8-47t19-38 18-31 8-27h-321q-28 0-50-22t-22-50q0-29 22-50t50-21h185q-9-9-14-26t-6-31q0-39 30-67-10-18-10-38t9-41 27-30q-2-13-2-31 0-47 27-70t75-23q47 0 102 18t109 35 93 18z m161 36q0 15-11 25t-25 11-25-11-11-25 11-25 25-11 25 11 11 25z m71 321v-357q0-29-21-50t-50-21h-161q-33 0-125-33-106-39-176-39-80 0-129 44t-48 121l0 3q-34 42-34 99 0 12 2 24-19 32-21 67h-94q-59 0-101 42t-42 101q0 58 42 100t101 42h209q-13 34-13 72 0 68 46 105t115 38q21 0 39-10t31-28 22-35 21-40 18-35q20-30 56-72 1-1 8-9t10-12 12-12 13-13 13-10 13-8 12-2h161q29 0 50-21t21-51z" horiz-adv-x="1000" />

<glyph glyph-name="up-hand" unicode="&#xe85e;" d="M714-43q0 15-10 25t-25 11-25-11-11-25 11-25 25-11 25 11 10 25z m72 427q0 105-93 105-15 0-32-3-9 17-29 27t-41 9-38-10q-28 30-67 30-14 0-31-6t-26-14v185q0 29-22 50t-50 22q-28 0-50-22t-21-50v-321q-11 0-27 8t-31 19-38 18-47 8q-37 0-55-24t-17-65q0-13 78-50 25-14 36-21 36-22 81-62 45-40 59-57 32-38 32-78v-18h357v18q0 40 18 93t36 108 18 101z m71 2q0-74-38-179-33-92-33-125v-161q0-29-21-50t-51-21h-357q-29 0-50 21t-21 50v161q0 6-3 12t-8 13-10 13-12 13-12 12-12 10-10 8q-41 36-72 56-11 7-34 18t-40 21-36 23-27 30-10 39q0 70 37 115t106 46q38 0 71-13v209q0 58 43 101t100 42q58 0 101-42t42-101v-94q35-2 66-21 12 2 24 2 57 0 100-34 77 1 122-47t45-127z" horiz-adv-x="857.1" />

<glyph glyph-name="down-hand" unicode="&#xe85f;" d="M786 314q0 47-18 102t-36 109-18 93v18h-357v-18q0-20-7-38t-20-35-26-28-30-27q-5-4-8-7-45-40-81-62-12-8-38-21-1-1-12-6t-20-10-20-12-17-12-7-10q0-40 17-64t55-25q24 0 47 8t38 19 31 18 27 8v-321q0-28 21-50t50-22q29 0 50 22t22 50v185q25-20 57-20 39 0 67 30 17-10 38-10t41 9 29 27q14-2 32-2 47 0 70 27t23 75z m-72 429q0 14-10 25t-25 11-25-11-11-25 11-25 25-11 25 11 10 25z m143-426q0-80-43-129t-121-48l-3 0q-43-34-100-34-12 0-24 2-30-17-66-21v-94q0-59-42-101t-101-42q-58 0-100 42t-43 101v209q-30-13-71-13-68 0-105 46t-38 115q0 21 10 39t27 31 36 22 40 21 34 18q31 20 72 56 2 1 10 8t12 10 12 12 12 13 10 13 8 13 3 12v161q0 29 21 50t50 21h357q30 0 51-21t21-50v-161q0-33 33-125 38-106 38-176z" horiz-adv-x="857.1" />

<glyph glyph-name="cw" unicode="&#xe860;" d="M857 707v-250q0-14-10-25t-26-11h-250q-23 0-32 23-10 22 7 38l77 77q-82 77-194 77-58 0-111-23t-91-61-61-91-23-111 23-111 61-91 91-61 111-23q66 0 125 29t100 82q4 6 13 7 8 0 14-5l76-77q5-4 6-11t-5-13q-60-74-147-114t-182-41q-87 0-167 34t-136 92-92 137-34 166 34 166 92 137 136 92 167 34q82 0 158-31t137-88l72 72q17 18 39 8 22-9 22-33z" horiz-adv-x="857.1" />

<glyph glyph-name="ccw" unicode="&#xe861;" d="M857 350q0-87-34-166t-91-137-137-92-166-34q-96 0-183 41t-147 114q-4 6-4 13t5 11l76 77q6 5 14 5 9-1 13-7 41-53 100-82t126-29q58 0 110 23t92 61 61 91 22 111-22 111-61 91-92 61-110 23q-55 0-105-20t-90-57l77-77q17-16 8-38-10-23-33-23h-250q-15 0-25 11t-11 25v250q0 24 22 33 22 10 39-8l72-72q60 57 137 88t159 31q87 0 166-34t137-92 91-137 34-166z" horiz-adv-x="857.1" />

<glyph glyph-name="arrows-cw" unicode="&#xe862;" d="M843 261q0-3 0-4-36-150-150-243t-267-93q-81 0-157 31t-136 88l-72-72q-11-11-25-11t-25 11-11 25v250q0 14 11 25t25 11h250q14 0 25-11t10-25-10-25l-77-77q40-36 90-57t105-20q74 0 139 37t104 99q6 10 30 66 4 13 16 13h107q8 0 13-6t5-12z m14 446v-250q0-14-10-25t-26-11h-250q-14 0-25 11t-10 25 10 25l77 77q-82 77-194 77-75 0-140-37t-104-99q-6-10-29-66-5-13-17-13h-111q-7 0-13 6t-5 12v4q36 150 151 243t268 93q81 0 158-31t137-88l72 72q11 11 25 11t26-11 10-25z" horiz-adv-x="857.1" />

<glyph glyph-name="shuffle" unicode="&#xe863;" d="M372 582q-34-52-77-153-12 25-20 41t-23 35-28 32-36 19-45 8h-125q-8 0-13 5t-5 13v107q0 8 5 13t13 5h125q139 0 229-125z m628-446q0-8-5-13l-179-179q-5-5-12-5-8 0-13 6t-5 12v107q-18 0-48 0t-45-1-41 1-39 3-36 6-35 10-32 16-33 22-31 30-31 39q33 52 76 152 12-25 20-40t23-36 28-31 35-20 46-8h143v107q0 8 5 13t13 5q6 0 13-5l178-178q5-5 5-13z m0 500q0-8-5-13l-179-179q-5-5-12-5-8 0-13 6t-5 12v107h-143q-27 0-49-8t-38-25-29-34-25-44q-18-34-43-95-16-37-28-62t-30-59-36-55-41-47-50-38-60-23-71-10h-125q-8 0-13 5t-5 13v107q0 8 5 13t13 5h125q27 0 48 9t39 25 28 34 26 43q17 35 43 96 16 36 28 62t30 58 36 56 41 46 50 39 59 23 72 9h143v107q0 8 5 13t13 5q6 0 13-5l178-178q5-5 5-13z" horiz-adv-x="1000" />

<glyph glyph-name="play" unicode="&#xe864;" d="M772 333l-741-412q-13-7-22-2t-9 20v822q0 14 9 20t22-2l741-412q13-7 13-17t-13-17z" horiz-adv-x="785.7" />

<glyph glyph-name="play-circled2" unicode="&#xe865;" d="M661 350q0-21-18-31l-304-178q-8-5-18-5-8 0-17 4-18 11-18 31v358q0 20 18 31 18 10 35-1l304-178q18-10 18-31z m71 0q0 83-41 152t-110 111-152 41-153-41-110-111-41-152 41-152 110-111 153-41 152 41 110 111 41 152z m125 0q0-117-57-215t-156-156-215-58-216 58-155 156-58 215 58 215 155 156 216 58 215-58 156-156 57-215z" horiz-adv-x="857.1" />

<glyph glyph-name="inbox" unicode="&#xe866;" d="M571 314h176q0 2-1 5t-2 4l-118 277h-395l-118-277q-1-1-2-4t-1-5h176l53-107h179z m286-16v-269q0-15-10-25t-26-11h-785q-15 0-25 11t-11 25v269q0 34 14 68l133 308q5 14 20 24t29 9h465q14 0 29-9t20-24l133-308q14-34 14-68z" horiz-adv-x="857.1" />

<glyph glyph-name="globe" unicode="&#xe867;" d="M429 779q116 0 215-58t156-156 57-215-57-215-156-156-215-58-216 58-155 156-58 215 58 215 155 156 216 58z m153-291q-2-1-6-5t-7-6q1 0 2 3t3 6 2 4q3 4 12 8 8 4 29 7 19 5 29-6-1 1 5 7t8 7q2 1 8 3t9 4l1 12q-7-1-10 4t-3 12q0-2-4-5 0 4-2 5t-7-1-5-1q-5 2-8 5t-5 9-2 8q-1 3-5 6t-5 6q-1 1-2 3t-1 4-3 3-3 1-4-3-4-5-2-3q-2 1-4 1t-2-1-3-1-3-2q-1-2-4-2t-5-1q8 3-1 6-5 2-9 2 6 2 5 6t-5 8h3q-1 2-5 5t-10 5-7 3q-5 3-19 5t-18 1q-3-4-3-6t2-8 2-7q1-3-3-7t-3-7q0-4 7-9t6-12q-2-4-9-9t-9-6q-3-5-1-11t6-9q1-1 1-2t-2-3-3-2-4-2l-1-1q-7-3-12 3t-7 15q-4 14-9 17-13 4-16-1-3 7-23 15-14 5-33 2 4 0 0 8-4 9-10 7 1 3 2 10t0 7q2 8 7 13 1 1 4 5t5 7 1 4q19-3 28 6 2 3 6 9t6 10q5 3 8 3t8-3 8-3q8-1 8 6t-4 11q7 0 2 10-2 4-5 5-6 2-15-3-4-2 2-4-1 0-6-6t-9-10-9 3q0 0-3 7t-5 8q-5 0-9-9 1 5-6 9t-14 4q11 7-4 15-4 3-12 3t-11-2q-2-4-3-7t3-4 6-3 6-2 5-2q8-6 5-8-1 0-5-2t-6-2-4-2q-1-3 0-8t-1-8q-3 3-5 10t-4 9q4-5-14-3l-5 0q-3 0-9-1t-12-1-7 5q-3 4 0 11 0 2 2 1-2 2-6 5t-6 5q-25-8-52-23 3 0 6 1 3 1 8 4t5 3q19 7 24 4l3 2q7-9 11-14-4 3-17 1-11-3-12-7 4-6 2-10-2 2-6 6t-8 6-8 3q-9 0-13-1-81-45-131-124 4-4 7-4 2-1 3-5t1-6 6 1q5-4 2-10 1 0 25-15 10-10 11-12 2-6-5-10-1 1-5 5t-5 2q-2-3 0-10t6-7q-4 0-5-9t-2-20 0-13l1-1q-2-6 3-19t12-11q-7-1 11-24 3-4 4-5 2-1 7-4t9-6 5-5q2-3 6-13t8-13q-2-3 5-11t6-13q-1 0-2-1t-1 0q2-4 9-8t8-7q1-2 1-6t2-6 4-1q2 11-13 35-8 13-9 16-2 2-4 8t-2 8q1 0 3 0t5-2 4-3 1-1q-1-4 1-10t7-10 10-11 6-7q4-4 8-11t0-8q5 0 11-5t10-11q3-5 4-15t3-13q1-4 5-8t7-5l9-5t7-3q3-2 10-6t12-7q6-2 9-2t8 1 8 2q8 1 16-8t12-12q20-10 30-6-1 0 1-4t4-9 5-8 3-5q3-3 10-8t10-8q4 2 4 5-1-5 4-11t10-6q8 2 8 18-17-8-27 10 0 0-2 3t-2 5-1 4 0 5 2 1q5 0 6 2t-1 7-2 8q-1 4-6 11t-7 8q-3-5-9-4t-9 5q0-1-1-3t-1-4q-7 0-8 0 1 2 1 10t2 13q1 2 3 6t5 9 2 7-3 5-9 1q-11 0-15-11-1-2-2-6t-2-6-5-4q-4-2-14-1t-13 3q-8 4-13 16t-5 20q0 6 1 15t2 14-3 14q2 1 5 5t5 6q2 1 3 1t3 0 2 1 1 3q0 1-2 2-1 1-2 1 4-1 16 1t15-1q9-6 12 1 0 1-1 6t0 7q3-15 16-5 2-1 9-3t9-2q2-1 4-3t3-3 3 0 5 4q5-8 7-13 6-23 10-25 4-2 6-1t3 5 0 8-1 7l-1 5v10l0 4q-8 2-10 7t0 10 9 10q0 1 4 2t9 4 7 4q12 11 8 20 4 0 6 5 0 0-2 2t-5 2-2 2q5 2 1 8 3 2 4 7t4 5q5-6 12-1 5 5 1 9 2 4 11 6t10 5q4-1 5 1t0 7 2 7q2 2 9 5t7 2l9 7q2 2 0 2 10-1 18 6 5 6-4 11 2 4-1 5t-9 4q2 0 7 0t5 1q9 5-3 9-10 2-24-7z m-91-490q115 21 195 106-1 2-7 2t-7 2q-10 4-13 5 1 4-1 7t-5 5-7 5-6 4q-1 1-4 3t-4 3-4 2-5 2-5-1l-2-1q-2 0-3-1t-3-2-2-1 0-2q-12 10-20 13-3 0-6 3t-6 4-6 0-6-3q-3-3-4-9t-1-7q-4 3 0 10t1 10q-1 3-6 2t-6-2-7-5-5-3-4-3-5-5q-2-2-4-6t-2-6q-1 2-7 3t-5 3q1-5 2-19t3-22q4-17-7-26-15-14-16-23-2-12 7-14 0-4-5-12t-4-12q0-3 2-9z" horiz-adv-x="857.1" />

<glyph glyph-name="off" unicode="&#xe868;" d="M857 350q0-87-34-166t-91-137-137-92-166-34-167 34-136 92-92 137-34 166q0 102 45 191t126 151q24 18 54 14t46-28q18-23 14-53t-28-47q-54-41-84-101t-30-127q0-58 23-111t61-91 91-61 111-23 110 23 92 61 61 91 22 111q0 68-30 127t-84 101q-23 18-28 47t14 53q17 24 47 28t53-14q81-61 126-151t45-191z m-357 429v-358q0-29-21-50t-50-21-51 21-21 50v358q0 29 21 50t51 21 50-21 21-50z" horiz-adv-x="857.1" />

<glyph glyph-name="road" unicode="&#xe869;" d="M620 294v2l-13 179q-1 7-7 13t-12 5h-104q-7 0-13-5t-6-13l-13-179v-2q-1-6 4-11t12-4h136q7 0 12 4t4 11z m424-260q0-41-26-41h-393q7 0 12 5t5 13l-11 143q-1 7-7 12t-12 5h-152q-7 0-13-5t-6-12l-11-143q-1-7 4-13t12-5h-392q-26 0-26 41 0 30 14 64l233 583q5 11 15 18t21 8h189q-7 0-13-5t-6-13l-8-107q-1-8 4-13t12-5h93q7 0 12 5t5 13l-9 107q0 8-6 13t-13 5h190q11 0 21-8t14-18l233-583q15-34 15-64z" horiz-adv-x="1071.4" />

<glyph glyph-name="credit-card" unicode="&#xe86a;" d="M982 779q37 0 63-27t26-63v-678q0-37-26-63t-63-27h-893q-36 0-63 27t-26 63v678q0 37 26 63t63 27h893z m-893-72q-7 0-12-5t-6-13v-125h929v125q0 8-5 13t-13 5h-893z m893-714q7 0 13 5t5 13v339h-929v-339q0-7 6-13t12-5h893z m-839 71v72h143v-72h-143z m214 0v72h214v-72h-214z" horiz-adv-x="1071.4" />

<glyph glyph-name="megaphone" unicode="&#xe86b;" d="M929 493q29 0 50-21t21-51-21-50-50-21v-214q0-29-22-50t-50-22q-233 194-453 212-32-10-51-36t-17-57 22-51q-11-19-13-37t4-32 19-31 26-28 35-28q-17-32-63-46t-94-7-73 31q-4 13-17 49t-18 53-12 50-9 56 2 55 12 62h-68q-36 0-63 26t-26 63v107q0 37 26 63t63 26h268q243 0 500 215 29 0 50-22t22-50v-214z m-72-337v532q-220-168-428-191v-151q210-23 428-190z" horiz-adv-x="1000" />

<glyph glyph-name="search" unicode="&#xe86c;" d="M772 78q30-34 6-62l-46-46q-36-32-68 0l-190 190q-74-42-156-42-128 0-223 95t-95 223 90 219 218 91 224-95 96-223q0-88-46-162z m-678 358q0-88 68-156t156-68 151 63 63 153q0 88-68 155t-156 67-151-63-63-151z" horiz-adv-x="789" />

<glyph glyph-name="mail-1" unicode="&#xe86d;" d="M30 586q-32 18-28 40 2 14 26 14l846 0q38 0 20-32-8-14-24-22-14-6-192-102t-182-98q-16-10-46-10-28 0-46 10-4 2-182 98t-192 102z m850-100q20 10 20-10l0-368q0-16-17-32t-33-16l-800 0q-16 0-33 16t-17 32l0 368q0 20 20 10l384-200q18-10 46-10t46 10z" horiz-adv-x="900" />

<glyph glyph-name="heart-1" unicode="&#xe86e;" d="M790 644q70-64 70-156t-70-158l-360-330-360 330q-70 66-70 158t70 156q62 58 151 58t153-58l56-52 58 52q62 58 150 58t152-58z" horiz-adv-x="860" />

<glyph glyph-name="heart-empty-1" unicode="&#xe86f;" d="M790 642q70-64 70-156t-70-156l-360-330-360 330q-70 64-70 156t70 156q64 58 152 58t150-58l58-52 56 52q64 58 152 58t152-58z m-54-260q42 40 42 104 0 66-38 100-38 38-102 38-52 0-104-48l-104-92-106 92q-48 48-102 48-64 0-104-38-38-36-38-100 0-66 44-104l306-286z" horiz-adv-x="860" />

<glyph glyph-name="star-1" unicode="&#xe870;" d="M440 790l120-336 320 0-262-196 94-348-272 208-272-208 94 348-262 196 320 0z" horiz-adv-x="880" />

<glyph glyph-name="star-empty-1" unicode="&#xe871;" d="M880 454l-262-196 94-348-272 208-272-208 94 348-262 196 320 0 120 336 120-336 320 0z m-440-238l150-124-62 178 144 114-176-4-56 202-54-202-176 4 142-114-62-178z" horiz-adv-x="880" />

<glyph glyph-name="user" unicode="&#xe872;" d="M736 128q204-72 204-122l0-106-940 0 0 106q0 50 204 122 94 34 128 69t34 95q0 22-22 49t-32 73q-2 12-9 18t-14 8-14 17-9 43q0 16 5 26t9 12l4 4q-8 50-12 88-4 54 41 112t157 58 158-58 40-112l-12-88q18-8 18-42-2-28-9-43t-14-17-14-8-9-18q-8-48-31-74t-23-48q0-60 35-95t127-69z" horiz-adv-x="940" />

<glyph glyph-name="users" unicode="&#xe873;" d="M1000-90l-224 0 0 150q0 54-30 81t-154 89q40 30 40 84 0 16-13 33t-19 51q-2 8-14 16t-14 42q0 24 12 30-6 34-8 60-4 38 23 78t95 40 96-40 24-78l-8-60q12-6 12-30-2-34-14-42t-14-16q-6-34-19-51t-13-33q0-42 21-66t77-48q112-46 130-80 6-8 9-61t5-101l0-48z m-488 262q182-78 182-124l0-138-694 0 0 184q0 44 84 78 76 32 104 64t28 88q0 20-19 44t-25 68q-2 10-18 22t-20 56q0 14 3 23t7 13l4 2q-6 46-10 82-4 50 33 103t127 53 127-53 33-103l-10-82q14-8 14-38-4-44-20-56t-18-22q-6-44-25-68t-19-44q0-56 28-88t104-64z" horiz-adv-x="1000" />

<glyph glyph-name="user-add" unicode="&#xe874;" d="M620 128q180-64 180-122l0-106-800 0 0 202q36 14 82 26 94 34 129 69t35 95q0 22-23 48t-31 74q-2 12-23 25t-25 61q0 16 5 26t9 12l4 4q-8 50-12 88-6 54 40 112t160 58 160-58 42-112l-14-88q18-8 18-42-2-28-9-43t-14-17-14-8-9-18q-10-46-33-73t-23-49q0-60 36-95t130-69z m230 272l150 0 0-100-150 0 0-150-100 0 0 150-150 0 0 100 150 0 0 150 100 0 0-150z" horiz-adv-x="1000" />

<glyph glyph-name="video-1" unicode="&#xe875;" d="M980 600l-100 0 0-100 100 0 0-100-100 0 0-100 100 0 0-100-100 0 0-100 100 0 0-60q0-16-12-28t-28-12l-900 0q-16 0-28 12t-12 28l0 60 100 0 0 100-100 0 0 100 100 0 0 100-100 0 0 100 100 0 0 100-100 0 0 60q0 18 12 29t28 11l900 0q16 0 28-11t12-29l0-60z m-600-400l250 150-250 150 0-300z" horiz-adv-x="980" />

<glyph glyph-name="picture-1" unicode="&#xe876;" d="M856 518l-100 0-124 150-214-150-180 0q-52 0-90-39t-38-91l0-160-108 296q-10 38 22 52l680 248q36 10 50-24z m106-90q16 0 27-12t11-28l0-472q0-16-11-28t-27-12l-724 0q-16 0-27 12t-11 28l0 472q0 16 11 28t27 12l724 0z m-56-452l0 162-72 160-166-60-130-132-138 170-92-214 0-86 598 0z" horiz-adv-x="1000" />

<glyph glyph-name="camera-1" unicode="&#xe877;" d="M500 450q64 0 107-44t43-106-44-106-106-44-106 44-44 106 44 106 106 44z m400 150q42 0 71-29t29-71l0-450q0-40-29-70t-71-30l-800 0q-40 0-70 30t-30 70l0 450q0 42 30 71t70 29l120 0q28 0 40 30l30 92q10 28 40 28l340 0q30 0 40-28l30-92q12-30 40-30l120 0z m-400-550q104 0 177 73t73 177-73 177-177 73-177-73-73-177 73-177 177-73z m366 380q14 0 24 11t10 25-10 24-24 10q-36 0-36-34 0-16 11-26t25-10z" horiz-adv-x="1000" />

<glyph glyph-name="layout" unicode="&#xe878;" d="M170 650q80 0 80-80l0-90q0-80-80-80l-90 0q-80 0-80 80l0 90q0 80 80 80l90 0z m350 0q80 0 80-80l0-90q0-80-80-80l-90 0q-80 0-80 80l0 90q0 80 80 80l90 0z m-350-350q80 0 80-80l0-90q0-80-80-80l-90 0q-80 0-80 80l0 90q0 80 80 80l90 0z m350 0q80 0 80-80l0-90q0-80-80-80l-90 0q-80 0-80 80l0 90q0 80 80 80l90 0z" horiz-adv-x="600" />

<glyph glyph-name="menu-1" unicode="&#xe879;" d="M650 400q22 0 36-15t14-35-15-35-35-15l-600 0q-20 0-35 15t-15 35 14 35 36 15l600 0z m-600 100q-20 0-35 15t-15 35 14 35 36 15l600 0q22 0 36-15t14-35-15-35-35-15l-600 0z m600-300q22 0 36-15t14-35-15-35-35-15l-600 0q-20 0-35 15t-15 35 14 35 36 15l600 0z" horiz-adv-x="700" />

<glyph glyph-name="check" unicode="&#xe87a;" d="M249 0q-34 0-56 28l-180 236q-16 24-12 52t26 46 51 14 47-28l118-154 296 474q16 24 43 30t53-8q24-16 30-43t-8-53l-350-560q-20-32-56-32z" horiz-adv-x="667" />

<glyph glyph-name="cancel-1" unicode="&#xe87b;" d="M452 194q18-18 18-43t-18-43q-18-16-43-16t-43 16l-132 152-132-152q-18-16-43-16t-43 16q-16 18-16 43t16 43l138 156-138 158q-16 18-16 43t16 43q18 16 43 16t43-16l132-152 132 152q18 16 43 16t43-16q18-18 18-43t-18-43l-138-158z" horiz-adv-x="470" />

<glyph glyph-name="cancel-circled-1" unicode="&#xe87c;" d="M420 770q174 0 297-123t123-297-123-297-297-123-297 123-123 297 123 297 297 123z m86-420l154 154-86 86-154-152-152 152-88-86 154-154-154-152 88-86 152 152 154-152 86 86z" horiz-adv-x="840" />

<glyph glyph-name="cancel-squared" unicode="&#xe87d;" d="M700 750q42 0 71-29t29-71l0-600q0-40-29-70t-71-30l-600 0q-40 0-70 30t-30 70l0 600q0 42 30 71t70 29l600 0z m-146-638l86 86-154 152 154 154-86 86-154-152-152 152-88-86 154-154-154-152 88-86 152 152z" horiz-adv-x="800" />

<glyph glyph-name="plus-1" unicode="&#xe87e;" d="M550 400q30 0 30-50t-30-50l-210 0 0-210q0-30-50-30t-50 30l0 210-210 0q-30 0-30 50t30 50l210 0 0 210q0 30 50 30t50-30l0-210 210 0z" horiz-adv-x="580" />

<glyph glyph-name="plus-circled-1" unicode="&#xe87f;" d="M420 770q174 0 297-123t123-297-123-297-297-123-297 123-123 297 123 297 297 123z m52-470l200 0 0 102-200 0 0 202-102 0 0-202-202 0 0-102 202 0 0-202 102 0 0 202z" horiz-adv-x="840" />

<glyph glyph-name="plus-squared-1" unicode="&#xe880;" d="M700 750q42 0 71-29t29-71l0-600q0-40-29-70t-71-30l-600 0q-40 0-70 30t-30 70l0 600q0 42 30 71t70 29l600 0z m-50-450l0 100-200 0 0 200-100 0 0-200-200 0 0-100 200 0 0-200 100 0 0 200 200 0z" horiz-adv-x="800" />

<glyph glyph-name="minus-1" unicode="&#xe881;" d="M550 400q30 0 30-50t-30-50l-520 0q-30 0-30 50t30 50l520 0z" horiz-adv-x="580" />

<glyph glyph-name="minus-circled-1" unicode="&#xe882;" d="M420 770q174 0 297-123t123-297-123-297-297-123-297 123-123 297 123 297 297 123z m252-368l-504 0 0-102 504 0 0 102z" horiz-adv-x="840" />

<glyph glyph-name="minus-squared-1" unicode="&#xe883;" d="M700 750q42 0 71-29t29-71l0-600q0-40-29-70t-71-30l-600 0q-40 0-70 30t-30 70l0 600q0 42 30 71t70 29l600 0z m-50-450l0 100-500 0 0-100 500 0z" horiz-adv-x="800" />

<glyph glyph-name="help-1" unicode="&#xe884;" d="M494 740q86-62 86-184 0-64-42-124-12-20-88-80l-46-30q-40-34-48-60-6-16-8-44 0-14-16-14l-128 0q-16 0-16 12 4 98 28 124 16 22 48 48t56 42l24 14q22 16 34 34 28 44 28 70 0 40-26 78-28 36-92 36-68 0-94-44-28-42-28-92l-166 0q6 162 114 232 70 42 166 42 130 0 214-60z m-216-636q44 0 73-30t27-74q-2-46-32-73t-74-25q-44 0-73 29t-27 75 32 73 74 25z" horiz-adv-x="580" />

<glyph glyph-name="help-circled-1" unicode="&#xe885;" d="M454 810q190 2 326-130t140-322q2-190-131-327t-323-141q-190-2-327 131t-139 323q-4 190 130 327t324 139z m-2-740q30 0 49 19t19 47q2 30-17 49t-49 19l-2 0q-28 0-47-18t-21-46q0-30 19-49t47-21l2 0z m166 328q26 34 26 78 0 78-54 116-52 38-134 38-64 0-104-26-68-42-72-146l0-4 110 0 0 4q0 26 16 54 16 24 54 24 40 0 52-20 16-20 16-44 0-18-16-40-8-12-20-20l-6-4q-6-4-16-11t-20-15-21-17-17-17q-14-20-18-78l0-8 108 0 0 4q0 12 4 28 6 20 28 36l28 18q46 34 56 50z" horiz-adv-x="920" />

<glyph glyph-name="info-1" unicode="&#xe886;" d="M352 850q48 0 74-27t26-69q0-50-39-88t-95-38q-48 0-74 26t-24 72q0 46 35 85t97 39z m-206-1000q-100 0-54 178l60 254q14 56 0 56-12 0-54-18t-72-38l-26 44q90 78 189 126t151 48q78 0 36-162l-70-266q-16-64 6-64 44 0 118 60l30-40q-84-86-175-132t-139-46z" horiz-adv-x="460" />

<glyph glyph-name="info-circled-1" unicode="&#xe887;" d="M454 810q190 2 326-130t140-322q2-190-131-327t-323-141q-190-2-327 131t-139 323q-4 190 130 327t324 139z m52-152q-42 0-65-24t-23-50q-2-28 15-44t49-16q38 0 61 22t23 54q0 58-60 58z m-120-594q30 0 84 26t106 78l-18 24q-48-36-72-36-14 0-4 38l42 160q26 96-22 96-30 0-89-29t-115-75l16-26q52 34 74 34 12 0 0-34l-36-152q-26-104 34-104z" horiz-adv-x="920" />

<glyph glyph-name="back" unicode="&#xe888;" d="M750 540q40 0 70-29t30-71l0-290q0-40-30-70t-70-30l-690 0 0 140 650 0 0 210-500 0 0-110-210 180 210 180 0-110 540 0z" horiz-adv-x="850" />

<glyph glyph-name="home-1" unicode="&#xe889;" d="M888 336q16-16 11-27t-27-11l-84 0 0-310q0-14-1-21t-8-13-23-6l-204 0 0 310-204 0 0-310-194 0q-28 0-35 10t-7 30l0 310-84 0q-22 0-27 11t11 27l400 402q16 16 38 16t38-16z" horiz-adv-x="900" />

<glyph glyph-name="link-1" unicode="&#xe88a;" d="M294 116q14 14 34 14t36-14q32-34 0-70l-42-40q-56-56-132-56-78 0-134 56t-56 132q0 78 56 134l148 148q70 68 144 77t128-43q16-16 16-36t-16-36q-36-32-70 0-50 48-132-34l-148-146q-26-26-26-64t26-62q26-26 63-26t63 26z m450 574q56-56 56-132 0-78-56-134l-158-158q-74-72-150-72-62 0-112 50-14 14-14 34t14 36q14 14 35 14t35-14q50-48 122 24l158 156q28 28 28 64 0 38-28 62-24 26-56 31t-60-21l-50-50q-16-14-36-14t-34 14q-34 34 0 70l50 50q54 54 127 51t129-61z" horiz-adv-x="800" />

<glyph glyph-name="attach-1" unicode="&#xe88b;" d="M244-140q-102 0-170 72-72 70-74 166t84 190l496 496q80 80 174 54 44-12 79-47t47-79q26-96-54-176l-474-474q-40-40-88-46-48-4-80 28-30 24-27 74t47 92l332 334q24 26 50 0t0-50l-332-332q-44-44-20-70 12-8 24-6 24 4 46 26l474 474q50 50 34 108-16 60-76 76-54 14-108-36l-494-494q-66-76-64-143t52-117q50-48 117-50t141 62l496 494q24 24 50 0 26-22 0-48l-496-496q-82-82-186-82z" horiz-adv-x="939" />

<glyph glyph-name="lock-1" unicode="&#xe88c;" d="M640 476q20 0 40-19t20-41l0-390q0-48-48-66l-60-18q-42-16-96-16l-290 0q-56 0-98 16l-60 18q-48 18-48 66l0 390q0 22 15 41t35 19l100 0 0 70q0 110 51 170t149 60 149-60 51-170l0-70 90 0z m-390 90l0-90 200 0 0 90q0 52-27 81t-73 29-73-29-27-81z" horiz-adv-x="700" />

<glyph glyph-name="lock-open-1" unicode="&#xe88d;" d="M640 450q20 0 40-20t20-40l0-390q0-20-14-39t-34-25l-60-20q-52-16-96-16l-290 0q-46 0-98 16l-60 20q-20 6-34 25t-14 39l0 390q0 22 15 41t35 19l400 0 0 140q0 110-100 110t-100-110l0-40-100 0 0 20q0 110 51 170t149 60q200 0 200-230l0-120 90 0z" horiz-adv-x="700" />

<glyph glyph-name="eye-1" unicode="&#xe88e;" d="M500 630q92 0 177-25t141-62 99-77 63-71 20-45-20-44-63-71-99-78-141-62-177-25-177 25-141 62-99 78-63 71-20 44 20 45 63 71 99 77 141 62 177 25z m0-494q92 0 157 63t65 151q0 90-65 153t-157 63-157-63-65-153q0-88 65-151t157-63z m0 214q8-8 37-2t50 11 25-9q0-44-33-75t-79-31-78 31-32 75q0 46 32 77t78 31q14 0 10-23t-12-47 2-38z" horiz-adv-x="1000" />

<glyph glyph-name="tag-1" unicode="&#xe88f;" d="M944 830q36-106-8-199t-128-157l18-24q16-28 6-54l-48-158q-12-30-36-46l-464-328q-42-30-64 4l-210 304q-12 18-9 39t21 33l464 328q26 18 54 18l158 0q30 0 48-26l28-40q168 130 114 286-10 28 18 40 32 8 38-20z m-216-468q40 32 34 80l-32-16q-8-4-12-4-18 0-28 18-12 30 16 40l24 14q-48 34-92 0-28-18-34-51t14-61q18-26 51-32t59 12z" horiz-adv-x="960" />

<glyph glyph-name="bookmark-1" unicode="&#xe890;" d="M310 800q22 0 36-15t14-35l0-850-180 180-180-180 0 850q0 50 40 50l270 0z" horiz-adv-x="360" />

<glyph glyph-name="bookmarks" unicode="&#xe891;" d="M500 850q20 0 35-15t15-35l0-850-150 180 0 620q0 20-15 35t-35 15l-100 0q0 50 40 50l210 0z m-250-150q20 0 35-15t15-35l0-800-150 180-150-180 0 800q0 50 40 50l210 0z" horiz-adv-x="550" />

<glyph glyph-name="flag-1" unicode="&#xe892;" d="M874 616q14 6 22-1t0-19q-96-138-164-213t-110-90-73-2-60 37-63 40-93-4-139-86l90-352-100 0-184 720 92 34q90 66 152 86t98 3 64-51 62-71 79-62 129-20 198 51z" horiz-adv-x="900" />

<glyph glyph-name="thumbs-up-1" unicode="&#xe893;" d="M582 480q2-6 58-13t108-24 52-47q0-72-61-284t-107-212q-144 0-288 42t-144 88l0 342q0 14 15 34t46 45 53 41 62 43 46 31q50 34 104 100t85 104 41 26q48-76 29-137t-59-119-40-60z m-432-4q14 0 0-14-50-50-50-104l0-318q0-50 52-104 10-10-2-10-26 0-55 8t-62 45-33 99l0 242q0 62 33 100t63 47 54 9z" horiz-adv-x="800" />

<glyph glyph-name="thumbs-down-1" unicode="&#xe894;" d="M218 218q-2 6-57 13t-108 24-53 47q0 72 62 285t106 213q144 0 288-43t144-89l0-342q0-10-8-24t-25-30-32-29-42-32-41-29-41-28l-33-22q-50-34-104-100t-85-104-41-26q-48 76-29 137t59 119 40 60z m432 4q-12 0 2 14 48 50 48 104l0 318q0 50-52 104-10 10 2 10 26 0 55-8t62-45 33-99l0-242q0-48-18-81t-45-48-48-21-39-6z" horiz-adv-x="800" />

<glyph glyph-name="download-1" unicode="&#xe895;" d="M968 198q18-10 27-32t3-40l-28-154q-4-20-22-33t-40-13l-816 0q-22 0-40 13t-22 33l-28 154q-10 48 32 72l158 108 98 0-170-130 178 0q8 0 12-8l40-110 300 0 40 110q8 8 12 8l178 0-170 130 98 0z m-208 322l-260-244-260 244 166 0 0 256 190 0 0-256 164 0z" horiz-adv-x="1000" />

<glyph glyph-name="upload-1" unicode="&#xe896;" d="M500 776l260-244-164 0 0-256-190 0 0 256-166 0z m468-578q18-10 27-32t3-40l-28-154q-4-20-22-33t-40-13l-816 0q-22 0-40 13t-22 33l-28 154q-10 48 32 72l158 108 98 0-170-130 178 0q8 0 12-8l40-110 300 0 40 110q8 8 12 8l178 0-170 130 98 0z" horiz-adv-x="1000" />

<glyph glyph-name="upload-cloud-1" unicode="&#xe897;" d="M760 494q100 0 170-68t70-166-70-166-170-68l-190 0 0 190 106 0-176 230-174-230 104 0 0-190-248 0q-74 0-128 52t-54 124q0 74 53 126t129 52q14 0 20-2-2 12-2 38 0 108 78 184t188 76q90 0 160-52t94-134q28 4 40 4z" horiz-adv-x="1000" />

<glyph glyph-name="reply-1" unicode="&#xe898;" d="M900 10q-86 152-208 197t-330 45l0-218-362 334 362 322 0-192q90 0 168-27t131-70 96-95 69-104 44-95 24-69z" horiz-adv-x="900" />

<glyph glyph-name="reply-all-1" unicode="&#xe899;" d="M362 556l-212-188 212-196 0-138-362 334 362 322 0-134z m250-58q104 0 182-50t115-122 60-144 27-122l4-50q-86 154-168 198t-220 44l0-218-362 334 362 322 0-192z" horiz-adv-x="1000" />

<glyph glyph-name="forward-1" unicode="&#xe89a;" d="M540 252q-210 0-332-45t-208-197q4 20 13 53t50 117 96 148 156 117 225 53l0 192 360-322-360-334 0 218z" horiz-adv-x="900" />

<glyph glyph-name="quote" unicode="&#xe89b;" d="M146 680q146 0 184-146 38-140-40-302-80-168-224-204-32-8-66-8l0 70q112 0 182 108 54 86 26 146-16 36-62 36-60 0-103 44t-43 106 43 106 103 44z m420 0q146 0 184-146 38-140-40-302-80-168-224-204-32-8-66-8l0 70q112 0 182 108 54 86 26 146-16 36-62 36-60 0-103 44t-43 106 43 106 103 44z" horiz-adv-x="762" />

<glyph glyph-name="code-1" unicode="&#xe89c;" d="M380 636q16-14 16-32t-16-30l-246-224 246-226q16-12 16-30t-16-32q-30-30-60 0l-320 288 320 286q30 30 60 0z m302 0l318-286-318-288q-32-30-62 0-32 32 0 62l248 226-248 224q-32 30 0 62 30 30 62 0z" horiz-adv-x="1000" />

<glyph glyph-name="export-1" unicode="&#xe89d;" d="M750 60l0 56 100 82 0-188q0-20-15-35t-35-15l-750 0q-20 0-35 15t-15 35l0 550q0 22 14 36t36 14l288 0q-32-24-59-49t-39-39l-10-12-130 0 0-450 650 0z m-82 348q-166 0-242-41t-160-181q0 8 1 22t9 56 22 79 44 83 70 79 107 56 149 23l0 156 332-250-332-260 0 178z" horiz-adv-x="1000" />

<glyph glyph-name="pencil-1" unicode="&#xe89e;" d="M718 680q32-32 47-64t15-48l0-16-252-252-290-288-238-52 50 240 290 288 252 252q54 12 126-60z m-494-640l24 24q-2 44-52 94-22 22-45 35t-35 13l-14 2-22-24-18-80q28-16 46-34 24-24 36-48z" horiz-adv-x="780" />

<glyph glyph-name="print-1" unicode="&#xe89f;" d="M66 526q-26 0-22 22 4 10 12 14 2 0 49 17t93 32 58 15l44 0 0 150 380 0 0-150 46 0q12 0 57-15t92-32 49-17q18-8 12-26-4-10-20-10l-850 0z m860-56q20 0 37-19t17-41l0-174q0-22-17-41t-37-19l-100 0 44-250-760 0 44 250-98 0q-20 0-38 19t-18 41l0 174q0 22 18 41t38 19l870 0z m-716-444l560 0-70 324-420 0z" horiz-adv-x="980" />

<glyph glyph-name="retweet-1" unicode="&#xe8a0;" d="M250 190l272 0 128-140-448 0q-42 0-71 30t-29 70l0 302-102 0 176 198 174-198-100 0 0-262z m650 60l100 0-174-200-176 200 102 0 0 260-274 0-128 140 450 0q40 0 70-29t30-71l0-300z" horiz-adv-x="1000" />

<glyph glyph-name="chat-1" unicode="&#xe8a1;" d="M290 240l350 0q2 0 6 2l4 0 0-92q0-40-29-70t-71-30l-250 0-150-150 0 150-50 0q-40 0-70 30t-30 70l0 300q0 42 30 71t70 29l190 0 0-310z m610 560q42 0 71-29t29-71l0-300q0-40-29-70t-71-30l-50 0 0-150-150 150-350 0 0 400q0 42 30 71t70 29l450 0z" horiz-adv-x="1000" />

<glyph glyph-name="attention-1" unicode="&#xe8a2;" d="M957-24q10-16 0-34-10-16-30-16l-892 0q-18 0-28 16-13 18-2 34l446 782q8 18 30 18t30-18z m-420 50l0 100-110 0 0-100 110 0z m0 174l0 300-110 0 0-300 110 0z" horiz-adv-x="962" />

<glyph glyph-name="alert" unicode="&#xe8a3;" d="M885 234q20-16 16-33t-28-23l-78-22q-24-6-40-28t-14-48l4-82q2-24-14-34t-38 0l-86 44q-22 12-47 4t-35-30l-46-88q-12-22-29-23t-33 19l-50 78q-34 48-88 20l-122-70q-22-14-32-6t-2 32l54 164q8 24-4 44t-36 22l-106 12q-24 4-29 18t15 30l86 76q20 16 20 41t-20 41l-86 76q-20 16-16 33t28 23l78 22q24 6 41 28t15 48l-6 82q0 26 15 36t37 0l80-38q24-10 49-2t37 30l46 80q12 22 30 21t30-23l50-86q12-22 35-29t45 7l136 84q22 14 30 6t0-32l-60-170q-10-22 2-41t38-21l114-12q26-2 30-16t-16-30l-86-76q-18-16-18-41t18-41z m-384-92l0 104-100 0 0-104 100 0z m0 160l0 260-100 0 0-260 100 0z" horiz-adv-x="901" />

<glyph glyph-name="cup" unicode="&#xe8a4;" d="M340 760q152 0 249-41t91-87l-72-594q-2-14-34-36t-97-42-137-20-136 20-97 42-35 36l-72 594q-4 28 36 57t121 50 183 21z m0-216q72 0 137 15t98 33 33 30-33 29-98 32-137 15-137-15-98-32-33-29 33-30 98-33 137-15z" horiz-adv-x="681" />

<glyph glyph-name="trash-1" unicode="&#xe8a5;" d="M50 458q122-70 330-70t330 70l-54-486q-2-14-35-36t-100-43-141-21-140 21-100 43-36 36z m488 300q94-18 158-55t64-71l0-10q0-58-112-99t-268-41-268 41-112 99l0 10q0 34 64 71t158 55l42 48q22 26 70 26l92 0q52 0 70-26z m-54-112l84 0q-92 110-104 126-14 16-32 16l-102 0q-22 0-32-16l-106-126 84 0 64 66 82 0z" horiz-adv-x="760" />

<glyph glyph-name="docs-1" unicode="&#xe8a6;" d="M970 480q38-10 30-46l-150-556q-4-16-18-23t-30-3l-406 110q-16 4-24 18t-4 28l24 92-180-48q-40-10-50 26l-160 602q-10 36 28 48l454 122q16 4 30-3t18-23l66-244z m-888 190l144-542 392 106-144 540z m702-742l132 492-298 82 76-282q10-34-28-46l-196-52-26-102z" horiz-adv-x="1001" />

<glyph glyph-name="doc-1" unicode="&#xe8a7;" d="M600 800q42 0 71-29t29-71l0-700q0-40-29-70t-71-30l-500 0q-40 0-70 30t-30 70l0 700q0 42 30 71t70 29l500 0z m0-800l0 700-500 0 0-700 500 0z" horiz-adv-x="700" />

<glyph glyph-name="book" unicode="&#xe8a8;" d="M682 594q18-8 18-28l0-562q0-14-12-25t-28-11q-46 0-46 36l0 522q0 12-12 18l-404 216q-32 10-68-10-44-20-56-44l408-228q18-8 18-28l0-550q0-22-18-28-6-4-16-4-14 0-20 4-8 6-202 127t-212 131q-26 18-26 34l-6 524q0 28 14 52 28 46 102 77t116 9z" horiz-adv-x="700" />

<glyph glyph-name="folder-1" unicode="&#xe8a9;" d="M954 500q32 0 40-12t6-36l-42-452q-2-24-12-37t-42-13l-806 0q-52 0-56 50l-42 452q-2 24 6 36t40 12l908 0z m-34 110l10-40-846 0 14 132q4 20 20 34t36 14l164 0q52 0 86-34l30-30q32-36 86-36l340 0q20 0 38-12t22-28z" horiz-adv-x="1001" />

<glyph glyph-name="archive" unicode="&#xe8aa;" d="M840 600l0-50-696 0 0 50q0 22 13 35t25 15l608 0q6 0 14-1t22-14 14-35z m-148 150q6 0 14-1t22-14 14-35l-498 0q0 22 13 35t25 15l410 0z m248-200q34-32 38-46 6-18 0-54l-76-450q-4-22-20-35t-28-15l-710 0q-52 0-60 50-6 26-39 223t-39 227q-10 22-3 44t10 26 21 20l10 10 30 30 0-80 836 0 0 80z m-248-270l0 100-70 0 0-80-260 0 0 80-68 0 0-100q0-50 48-50l300 0q22 0 35 12t13 24z" horiz-adv-x="981" />

<glyph glyph-name="box-1" unicode="&#xe8ab;" d="M870 750q12 0 21-9t9-21l0-120-900 0 0 120q0 12 9 21t21 9l840 0z m-820-730l0 530 800 0 0-530q0-30-21-50t-49-20l-660 0q-28 0-49 20t-21 50z m250 430l0-100 300 0 0 100-300 0z" horiz-adv-x="900" />

<glyph glyph-name="rss-1" unicode="&#xe8ac;" d="M0 730q314 0 537-223t223-537l-118 0q0 266-188 453t-454 187l0 120z m0-238q218 0 371-153t153-369l-118 0q0 166-119 285t-287 119l0 118z m114-296q46 0 80-33t34-81q0-46-34-79t-80-33-80 33-34 79q0 48 34 81t80 33z" horiz-adv-x="760" />

<glyph glyph-name="phone-1" unicode="&#xe8ad;" d="M461 290q162 162 118 206l-8 8q-30 30-41 48t-4 54 49 88q20 24 37 39t35 16 30 1 29-13 24-18 26-25 21-22q48-48-6-194t-204-294q-150-150-295-205t-193-7q-2 2-23 22t-25 25-18 24-13 31 2 30 15 35 38 37q42 34 70 47t54 2 35-18 39-37q44-44 208 120z" horiz-adv-x="800" />

<glyph glyph-name="cog-1" unicode="&#xe8ae;" d="M760 350q0-72 80-122-12-40-34-82-70 18-136-44-54-58-34-136-40-20-84-36-46 82-132 82t-132-82q-44 16-84 36 20 80-34 136-54 54-136 34-14 26-34 82 82 52 82 132 0 72-82 124 20 56 34 82 74-18 136 44 54 56 34 136 42 22 84 34 46-80 132-80t132 80q42-12 84-34-20-78 34-136 66-62 136-44 22-42 34-82-80-50-80-124z m-340-182q76 0 129 53t53 129-53 130-129 54-129-54-53-130 53-129 129-53z" horiz-adv-x="840" />

<glyph glyph-name="tools" unicode="&#xe8af;" d="M155 506q-8-8-11-22t-3-25-2-11q-2-2-17-15t-19-17q-16-14-28 4l-70 76q-11 12 2 24 2 2 18 14t20 16q6 6 27 6t37 14q14 14 18 38t10 30q2 0 9 7t26 22 41 31q134 90 186 96 122 0 148-2 12 0-8-8-120-52-152-76-80-56-36-114 34-46 38-48 8-8-2-14-2-2-38-35t-38-35q-14-8-18-4-42 48-71 60t-67-12z m286-26l410-476q18-22-2-38l-48-42q-22-14-38 4l-414 472q-8 8 0 20l72 62q12 8 20-2z m554 202q16-104-16-166-50-88-154-62-56 12-100-32l-82-78-68 78 68 70q24 24 31 53t6 65 5 58q12 56 140 112 12 6 18-3t2-15q-12-12-46-80-14-10-12-35t40-53q58-40 96 22 6 12 26 41t22 33q4 10 13 9t11-17z m-858-684l254 248 76-86-246-242q-20-20-38-4l-46 46q-22 18 0 38z" horiz-adv-x="1000" />

<glyph glyph-name="share-1" unicode="&#xe8b0;" d="M650 200q62 0 106-43t44-107q0-62-44-106t-106-44-106 44-44 106q0 6 1 14t1 12l-260 156q-42-32-92-32-62 0-106 44t-44 106 44 106 106 44q54 0 92-30l260 156q0 4-1 12t-1 12q0 62 44 106t106 44 106-43 44-107q0-62-44-106t-106-44q-52 0-90 32l-262-156q2-8 2-26 0-16-2-24l262-156q36 30 90 30z" horiz-adv-x="800" />

<glyph glyph-name="shareable" unicode="&#xe8b1;" d="M340 350q0 68 47 114t113 46 113-46 47-114q0-66-47-113t-113-47-113 47-47 113z m-114 60q-14-60-66-60l-160 0 0 120 118 0q40 124 145 202t237 78q164 0 284-116 16-18 16-43t-16-43q-18-16-43-16t-43 16q-78 82-198 82-100 0-176-62t-98-158z m614-60l160 0 0-120-118 0q-40-124-144-202t-238-78q-164 0-282 118-18 18-18 43t18 41q16 18 41 18t43-18q82-82 198-82 100 0 176 63t98 157q12 60 66 60z" horiz-adv-x="1000" />

<glyph glyph-name="basket-1" unicode="&#xe8b2;" d="M150 0q0 40 30 70t70 30q42 0 71-30t29-70q0-42-29-71t-71-29q-40 0-70 29t-30 71z m500 0q0 40 30 70t70 30q42 0 71-30t29-70q0-42-29-71t-71-29q-40 0-70 29t-30 71z m-322 236q-36-10-34-23t44-13l562 0 0-76q0-20-20-20l-654 0q-20 0-20 20l0 76-10 46-98 454-98 0 0 80q0 20 20 20l156 0q20 0 20-20l0-86 704 0 0-274q0-22-18-26z" horiz-adv-x="900" />

<glyph glyph-name="bag" unicode="&#xe8b3;" d="M835 668q28-26 24-60l-98-648q-8-30-38-30l-586 0q-28 0-40 30-94 620-96 648-5 34 22 60 6 6 54 43t56 43q18 16 56 16l480 0q38 0 56-16 78-58 110-86z m-406-436q56 0 98 34t63 89 30 89 13 66l-92 0q-38-188-112-188t-112 188l-92 0q46-278 204-278z m-352 368l704 0-110 116-484 0z" horiz-adv-x="859" />

<glyph glyph-name="calendar-1" unicode="&#xe8b4;" d="M800 700q42 0 71-29t29-71l0-600q0-40-29-70t-71-30l-700 0q-40 0-70 30t-30 70l0 600q0 42 30 71t70 29l46 0 0-100 160 0 0 100 290 0 0-100 160 0 0 100 44 0z m0-700l0 400-700 0 0-400 700 0z m-540 800l0-170-70 0 0 170 70 0z m450 0l0-170-70 0 0 170 70 0z" horiz-adv-x="900" />

<glyph glyph-name="login-1" unicode="&#xe8b5;" d="M800 800q42 0 71-29t29-71l0-700q0-40-29-70t-71-30l-450 0q-40 0-69 30t-29 70l0 100 98 0 0-100 450 0 0 700-450 0 0-150-98 0 0 150q0 42 29 71t69 29l450 0z m-350-670l0 120-450 0 0 150 450 0 0 120 200-194z" horiz-adv-x="900" />

<glyph glyph-name="logout-1" unicode="&#xe8b6;" d="M502 0l0 100 98 0 0-100q0-40-29-70t-71-30l-400 0q-40 0-70 30t-30 70l0 700q0 42 30 71t70 29l400 0q42 0 71-29t29-71l0-150-98 0 0 150-402 0 0-700 402 0z m398 326l-198-196 0 120-450 0 0 150 450 0 0 120z" horiz-adv-x="900" />

<glyph glyph-name="light-down" unicode="&#xe8b7;" d="M350 510q68 0 114-47t46-113q0-68-46-114t-114-46q-66 0-113 46t-47 114q0 66 47 113t113 47z m0-264q44 0 73 30t29 74q0 42-29 72t-73 30q-42 0-72-30t-30-72q0-44 30-74t72-30z m-300 144q20 0 35-12t15-28q0-40-50-40t-50 40q0 16 15 28t35 12z m546 204q28-28-8-64-14-14-33-16t-29 10q-12 12-10 31t16 33q36 34 64 6z m54-204q20 0 35-12t15-28q0-40-50-40-48 0-48 40 0 16 14 28t34 12z m-300-290q16 0 28-15t12-35-12-35-28-15-28 15-12 35 12 35 28 15z m-238 62q36 36 64 8t-8-64q-14-14-33-16t-29 8q-30 28 6 64z m-10 430q28 28 64-8 14-14 16-33t-8-29q-30-28-64 6-36 36-8 64z m432-484q-34 36-6 64t64-8q14-14 16-33t-10-29q-30-28-64 6z m-184 492q-16 0-28 15t-12 35 12 35 28 15 28-15 12-35-12-35-28-15z" horiz-adv-x="700" />

<glyph glyph-name="light-up" unicode="&#xe8b8;" d="M950 390q20 0 35-12t15-28q0-40-50-40l-48 0q-50 0-50 40 0 16 15 28t35 12l48 0z m-450 234q114 0 195-80t81-194q0-116-81-196t-195-80-194 80-80 196q0 114 80 194t194 80z m0-474q82 0 141 58t59 142q0 82-59 141t-141 59-141-59-59-141q0-84 59-142t141-58z m-350 200q0-40-50-40l-50 0q-50 0-50 40 0 16 15 28t35 12l50 0q20 0 35-12t15-28z m350 350q-16 0-28 15t-12 35l0 50q0 20 12 35t28 15 28-15 12-35l0-50q0-20-12-35t-28-15z m0-700q16 0 28-15t12-35l0-50q0-20-12-35t-28-15-28 15-12 35l0 50q0 20 12 35t28 15z m368 660l-34-34q-34-34-64-8-28 28 8 64 4 6 34 36 36 34 64 6t-8-64z m-700-588q14 16 33 18t29-10q12-12 10-31t-16-33l-36-36q-14-14-33-16t-29 10q-30 28 6 64 6 4 36 34z m20 646l36-36q36-36 6-64-10-10-29-8t-33 16q-30 30-36 34-14 14-16 33t10 31q10 12 29 10t33-16z m590-702q-36 36-8 64t64-8l34-34q36-36 8-64t-64 6q-30 30-34 36z" horiz-adv-x="1000" />

<glyph glyph-name="adjust" unicode="&#xe8b9;" d="M950 390q20 0 35-12t15-28q0-40-50-40l-48 0q-50 0-50 40 0 16 15 28t35 12l48 0z m-450 234q114 0 195-80t81-194q0-116-81-196t-195-80-194 80-80 196q0 114 80 194t194 80z m6-474l0 400q-86 0-146-59t-60-141q0-84 60-142t146-58z m-356 200q0-40-50-40l-50 0q-50 0-50 40 0 16 15 28t35 12l50 0q20 0 35-12t15-28z m350 350q-16 0-28 15t-12 35l0 50q0 20 12 35t28 15 28-15 12-35l0-50q0-20-12-35t-28-15z m0-700q16 0 28-15t12-35l0-50q0-20-12-35t-28-15-28 15-12 35l0 50q0 20 12 35t28 15z m368 660l-34-34q-34-34-64-8-28 28 8 64 4 6 34 36 36 34 64 6t-8-64z m-700-588q14 16 33 18t29-10q12-12 10-31t-16-33l-36-36q-14-14-33-16t-29 10q-30 28 6 64 6 4 36 34z m20 646l36-36q36-36 6-64-10-10-29-8t-33 16q-30 30-36 34-14 14-16 33t10 31q10 12 29 10t33-16z m590-702q-36 36-8 64t64-8l34-34q36-36 8-64t-64 6q-30 30-34 36z" horiz-adv-x="1000" />

<glyph glyph-name="lamp" unicode="&#xe8ba;" d="M209-110l0 104 282 0 0-104q-70-42-142-40-70-2-140 40z m276 164l-270 0q0 72-36 140t-78 113-74 112-26 139q8 120 94 206t254 86q170 0 255-86t95-206q4-60-16-113t-52-96-65-85-57-96-24-114z m-378 496q-4-4 0-20t2-20 5-19 6-18 8-18 11-19 13-19 14-19 15-21 16-23q88-122 112-212l82 0q24 94 112 212 4 6 25 35t25 36 17 29 16 33 6 28 1 35q-16 196-244 196-226 0-242-196z" horiz-adv-x="700" />

<glyph glyph-name="resize-full-1" unicode="&#xe8bb;" d="M476 746l316 0 0-316-100 124-146-152-100 100 152 146z m-230-444l100-100-152-146 122-100-316 0 0 316 100-122z" horiz-adv-x="792" />

<glyph glyph-name="resize-small-1" unicode="&#xe8bc;" d="M156 146l-106 100 296 0 0-296-100 106-146-156-100 100z m744 554l-154-144 104-100-294 0 0 294 100-104 144 154z" horiz-adv-x="900" />

<glyph glyph-name="popup" unicode="&#xe8bd;" d="M700 750q42 0 71-29t29-71l0-400q0-40-29-70t-71-30l-400 0q-40 0-70 30t-30 70l0 402q0 40 29 69t71 29l400 0z m0-500l0 400-400 0 0-400 400 0z m-600 100l0-300 300 0 0-100-300 0q-40 0-70 30t-30 70l0 300 100 0z" horiz-adv-x="800" />

<glyph glyph-name="down-open-1" unicode="&#xe8be;" d="M564 422l-234-224q-18-18-40-18t-40 18l-234 224q-16 16-16 41t16 41q38 38 78 0l196-188 196 188q40 38 78 0 16-16 16-41t-16-41z" horiz-adv-x="580" />

<glyph glyph-name="left-open-1" unicode="&#xe8bf;" d="M242 626q14 16 39 16t41-16q38-36 0-80l-186-196 186-194q38-44 0-80-16-16-40-16t-40 16l-226 236q-16 16-16 38 0 24 16 40 206 214 226 236z" horiz-adv-x="341" />

<glyph glyph-name="right-open-1" unicode="&#xe8c0;" d="M98 626l226-236q16-16 16-40 0-22-16-38l-226-236q-16-16-40-16t-40 16q-36 36 0 80l186 194-186 196q-36 44 0 80 16 16 41 16t39-16z" horiz-adv-x="340" />

<glyph glyph-name="up-open-1" unicode="&#xe8c1;" d="M564 280q16-16 16-41t-16-41q-38-38-78 0l-196 188-196-188q-40-38-78 0-16 16-16 41t16 41l234 224q16 16 40 16t40-16z" horiz-adv-x="580" />

<glyph glyph-name="down-open-mini" unicode="&#xe8c2;" d="M405 470q22 26 48 0 26-22 0-48l-196-192q-22-22-48 0l-196 192q-26 26 0 48 24 24 50 0l170-156z" horiz-adv-x="466" />

<glyph glyph-name="left-open-mini" unicode="&#xe8c3;" d="M252 180q26-26 0-48-26-26-48 0l-192 194q-24 24 0 50l192 194q22 26 48 0 26-22 0-48l-156-172z" horiz-adv-x="265" />

<glyph glyph-name="right-open-mini" unicode="&#xe8c4;" d="M13 180l158 170-158 172q-26 26 0 48 26 26 48 0l192-194q24-26 0-50l-192-194q-22-26-48 0-26 22 0 48z" horiz-adv-x="265" />

<glyph glyph-name="up-open-mini" unicode="&#xe8c5;" d="M62 230q-26-22-50 0-24 24 0 50l196 190q26 26 48 0l196-190q24-26 0-50-24-22-50 0l-170 158z" horiz-adv-x="464" />

<glyph glyph-name="down-open-big" unicode="&#xe8c6;" d="M63 570l370-356 372 356q22 26 48 0 26-22 0-48l-396-392q-22-22-48 0l-396 392q-26 26 0 48 24 24 50 0z" horiz-adv-x="866" />

<glyph glyph-name="left-open-big" unicode="&#xe8c7;" d="M452-20q26-26 0-48-26-26-48 0l-392 394q-24 24 0 50l392 394q22 26 48 0 26-22 0-48l-358-372z" horiz-adv-x="465" />

<glyph glyph-name="right-open-big" unicode="&#xe8c8;" d="M13-20l358 370-358 372q-26 26 0 48 26 26 48 0l392-394q24-26 0-50l-392-394q-22-26-48 0-26 22 0 48z" horiz-adv-x="465" />

<glyph glyph-name="up-open-big" unicode="&#xe8c9;" d="M804 130l-372 358-370-358q-26-22-50 0-24 24 0 50l396 390q26 26 48 0l396-390q24-26 0-50-26-22-48 0z" horiz-adv-x="864" />

<glyph glyph-name="down-1" unicode="&#xe8ca;" d="M660 366l-330-380-330 380 192 0 0 350 276 0 0-350 192 0z" horiz-adv-x="660" />

<glyph glyph-name="left-1" unicode="&#xe8cb;" d="M378 20l-378 330 378 330 0-190 352 0 0-278-352 0 0-192z" horiz-adv-x="730" />

<glyph glyph-name="right-1" unicode="&#xe8cc;" d="M350 680l380-330-380-330 0 192-350 0 0 278 350 0 0 190z" horiz-adv-x="730" />

<glyph glyph-name="up-1" unicode="&#xe8cd;" d="M660 336l-192 0 0-350-276 0 0 350-192 0 330 380z" horiz-adv-x="660" />

<glyph glyph-name="down-dir-1" unicode="&#xe8ce;" d="M460 550l-230-400-230 400 460 0z" horiz-adv-x="460" />

<glyph glyph-name="left-dir-1" unicode="&#xe8cf;" d="M400 580l0-460-400 230z" horiz-adv-x="400" />

<glyph glyph-name="right-dir-1" unicode="&#xe8d0;" d="M0 580l400-230-400-230 0 460z" horiz-adv-x="400" />

<glyph glyph-name="up-dir-1" unicode="&#xe8d1;" d="M0 150l230 400 230-400-460 0z" horiz-adv-x="460" />

<glyph glyph-name="down-bold" unicode="&#xe8d2;" d="M760 366l-380-380-380 380 192 0 0 350 376 0 0-350 192 0z" horiz-adv-x="760" />

<glyph glyph-name="left-bold" unicode="&#xe8d3;" d="M378 730l0-190 352 0 0-378-352 0 0-192-378 380z" horiz-adv-x="730" />

<glyph glyph-name="right-bold" unicode="&#xe8d4;" d="M350 730l380-380-380-380 0 192-350 0 0 378 350 0 0 190z" horiz-adv-x="730" />

<glyph glyph-name="up-bold" unicode="&#xe8d5;" d="M760 336l-192 0 0-350-376 0 0 350-192 0 380 380z" horiz-adv-x="760" />

<glyph glyph-name="down-thin" unicode="&#xe8d6;" d="M500 100l-250-240-250 240 162 0 0 740 176 0 0-740 162 0z" horiz-adv-x="500" />

<glyph glyph-name="left-thin" unicode="&#xe8d7;" d="M240 100l-240 250 240 250 0-160 740 0 0-178-740 0 0-162z" horiz-adv-x="980" />

<glyph glyph-name="right-thin" unicode="&#xe8d8;" d="M742 100l0 162-742 0 0 178 742 0 0 160 238-250z" horiz-adv-x="980" />

<glyph glyph-name="up-thin" unicode="&#xe8d9;" d="M500 602l-162 0 0-742-176 0 0 742-162 0 250 238z" horiz-adv-x="500" />

<glyph glyph-name="ccw-1" unicode="&#xe8da;" d="M532 736q170 0 289-120t119-290-119-290-289-120q-142 0-252 88l70 74q84-60 182-60 126 0 216 90t90 218-90 218-216 90q-124 0-214-87t-92-211l142 0-184-204-184 204 124 0q2 166 122 283t286 117z" horiz-adv-x="940" />

<glyph glyph-name="cw-1" unicode="&#xe8db;" d="M408 760q168 0 287-116t123-282l122 0-184-206-184 206 144 0q-4 124-94 210t-214 86q-126 0-216-90t-90-218q0-126 90-216t216-90q104 0 182 60l70-76q-110-88-252-88-168 0-288 120t-120 290 120 290 288 120z" horiz-adv-x="940" />

<glyph glyph-name="arrows-ccw" unicode="&#xe8dc;" d="M186 140l116 116 0-292-276 16 88 86q-116 122-114 290t120 288q100 100 240 116l4-102q-100-16-172-88-88-88-90-213t84-217z m332 598l276-16-88-86q116-122 114-290t-120-288q-96-98-240-118l-2 104q98 16 170 88 88 88 90 213t-84 217l-114-116z" horiz-adv-x="820" />

<glyph glyph-name="level-down-1" unicode="&#xe8dd;" d="M100 200q-42 0-71 30t-29 70l0 350 140 0 0-310 364 0 0 150 240-220-240-220 0 150-404 0z" horiz-adv-x="744" />

<glyph glyph-name="level-up-1" unicode="&#xe8de;" d="M200 350l0-90-200 160 200 170 0-100 550 0q40 0 70-29t30-71l0-280-140 0 0 240-510 0z" horiz-adv-x="850" />

<glyph glyph-name="shuffle-1" unicode="&#xe8df;" d="M754 516q-54 0-105-32t-80-66-83-104q-48-62-75-94t-78-77-107-66-122-21l-104 0 0 140 104 0q54 0 106 32t81 66 83 104q62 82 101 126t116 88 163 44l36 0 0 120 210-180-210-180 0 100-36 0z m-484-88q-74 78-166 78l-104 0 0 140 104 0q140 0 254-108-14-16-37-45t-27-33q-8-12-24-32z m520-242l0 100 210-180-210-180 0 120-36 0q-140 0-260 116 46 58 72 92 0 2 6 9t8 11q84-88 174-88l36 0z" horiz-adv-x="1000" />

<glyph glyph-name="loop" unicode="&#xe8e0;" d="M800 540q42 0 71-29t29-71l0-290q0-40-29-70t-71-30l-700 0q-40 0-70 30t-30 70l0 290q0 42 30 71t70 29l250 0 0 110 200-180-200-180 0 110-210 0 0-210 620 0 0 210-150 0 0 140 190 0z" horiz-adv-x="900" />

<glyph glyph-name="switch" unicode="&#xe8e1;" d="M700 592l0-140-500 0 0-90-200 160 200 170 0-100 500 0z m300-420l-200-160 0 90-500 0 0 140 500 0 0 100z" horiz-adv-x="1000" />

<glyph glyph-name="list" unicode="&#xe8e2;" d="M100 200q20 0 35-15t15-35-15-35-35-15l-50 0q-20 0-35 15t-15 35 14 35 36 15l50 0z m0 200q20 0 35-15t15-35-15-35-35-15l-50 0q-20 0-35 15t-15 35 14 35 36 15l50 0z m0 200q20 0 35-15t15-35-15-35-35-15l-50 0q-20 0-35 15t-15 35 14 35 36 15l50 0z m200-100q-20 0-35 15t-15 35 15 35 35 15l350 0q22 0 36-15t14-35-15-35-35-15l-350 0z m350-100q22 0 36-15t14-35-15-35-35-15l-350 0q-20 0-35 15t-15 35 15 35 35 15l350 0z m0-200q22 0 36-15t14-35-15-35-35-15l-350 0q-20 0-35 15t-15 35 15 35 35 15l350 0z" horiz-adv-x="700" />

<glyph glyph-name="list-add" unicode="&#xe8e3;" d="M350 400q22 0 36-15t14-35-15-35-35-15l-300 0q-20 0-35 15t-15 35 14 35 36 15l300 0z m0-200q22 0 36-15t14-35-15-35-35-15l-300 0q-20 0-35 15t-15 35 14 35 36 15l300 0z m620 200q30 0 30-50t-30-50l-170 0 0-170q0-30-50-30t-50 30l0 170-164 0q-30 0-30 50t30 50l164 0 0 170q0 30 50 30t50-30l0-170 170 0z m-620 200q22 0 36-15t14-35-15-35-35-15l-300 0q-20 0-35 15t-15 35 14 35 36 15l300 0z" horiz-adv-x="1000" />

<glyph glyph-name="signal" unicode="&#xe8e4;" d="M490 150q42 0 71-30t29-70q0-42-29-71t-71-29q-40 0-69 29t-29 71q0 40 29 70t69 30z m-210 112q88 88 210 88t210-88l-70-72q-58 58-140 58t-140-58z m-140 140q146 148 351 148t349-148l-70-70q-116 118-279 118t-281-118z m-140 142q204 206 491 206t489-206l-70-70q-174 176-420 176t-420-176z" horiz-adv-x="980" />

<glyph glyph-name="trophy" unicode="&#xe8e5;" d="M510 134l0-66q70-8 116-32t46-56q0-36-65-63t-157-27q-90 0-156 27t-66 63q0 32 46 56t118 32l0 66q0 50-33 84t-113 88q-56 36-87 61t-75 72-64 108-20 137q0 14 11 24t25 10l172 0q48 92 242 92 196 0 244-92l170 0q14 0 25-10t11-24q0-76-20-137t-64-108-75-72-87-61q-78-52-111-87t-33-85z m138 252q80 56 126 114t54 148l-126 0q-6-158-54-262z m-198 364q-62 0-108-15t-64-32-18-29q0-14 18-31t64-32 108-15 108 15 64 32 18 31q0 12-18 29t-64 32-108 15z m-378-102q8-90 54-148t126-114q-48 104-54 262l-126 0z" horiz-adv-x="900" />

<glyph glyph-name="back-in-time" unicode="&#xe8e6;" d="M532 760q170 0 289-120t119-290-119-290-289-120q-138 0-252 88l70 76q82-60 182-60 126 0 216 90t90 216q0 128-90 218t-216 90q-124 0-213-86t-93-210l142 0-184-206-184 206 124 0q4 166 123 282t285 116z m-36-190l70 0 0-204 130-130-50-50-150 150 0 234z" horiz-adv-x="940" />

<glyph glyph-name="monitor" unicode="&#xe8e7;" d="M900 790q42 0 71-30t29-70l0-550q0-42-29-77t-69-43l-218-44 86-38q50-28-20-28l-500 0q-98 0 32 52l36 14-220 44q-40 8-69 43t-29 77l0 550q0 40 30 70t70 30l800 0z m0-646l0 556-800 0 0-556 800 0z" horiz-adv-x="1000" />

<glyph glyph-name="mobile-1" unicode="&#xe8e8;" d="M480 840q42 0 71-29t29-71l0-780q0-40-29-70t-71-30l-380 0q-40 0-70 30t-30 70l0 780q0 42 30 71t70 29l380 0z m-190-940q30 0 50 15t20 35q0 22-20 36t-50 14q-28 0-49-15t-21-35 21-35 49-15z m210 150l0 660-420 0 0-660 420 0z" horiz-adv-x="580" />

<glyph glyph-name="globe-1" unicode="&#xe8e9;" d="M480 830q200 0 340-141t140-339q0-200-140-340t-340-140q-198 0-339 140t-141 340q0 198 141 339t339 141z m410-480q0 132-78 239t-202 149q-18-24-16-32 4-38 18-51t30-7l32 12t20 2q22-24 0-47t-45-56-1-77q34-64 96-64 28-2 43-36t17-66q10-80-14-140-22-44 14-76 86 112 86 250z m-466 404q-112-14-199-84t-127-174q6 0 22-2t28-3 26-4 24-8 12-13q4-12-14-45t-18-61q0-30 38-56t38-46q0-28 8-68t8-44q0-12 36-54t52-42q10 0 11 22t-2 54-3 40q0 32 14 74 12 42 59 70t55 46q16 34 9 61t-17 43-34 28-41 17-37 9-22 4q-16 6-42 7t-36-3-27 11-17 29q0 10 15 27t35 37 28 30q8 14 17 21t22 16 27 21q4 4 25 17t27 23z m-72-794q66-20 128-20 128 0 226 68-26 44-118 34-24-2-65-17t-47-17q-74-16-76-16-12-2-26-14t-22-18z" horiz-adv-x="960" />

<glyph glyph-name="cloud" unicode="&#xe8ea;" d="M760 494q100 0 170-68t70-166-70-166-170-68l-578 0q-74 0-128 52t-54 124q0 74 53 126t129 52q2 0 10-1t10-1q-2 12-2 38 0 108 78 184t188 76q90 0 160-52t94-134q28 4 40 4z" horiz-adv-x="1000" />

<glyph glyph-name="cloud-thunder" unicode="&#xe8eb;" d="M760 494q100 0 170-68t70-166-70-166-170-68l-578 0q-74 0-128 52t-54 124q0 74 53 126t129 52q2 0 10-1t10-1q-2 12-2 38 0 108 78 184t188 76q90 0 160-52t94-134q28 4 40 4z m-192-216q14 16 14 30 0 20-30 32l-4 0q-26 14-38 16l50 116q6 0 6 20 0 14-8 18-16 10-34-8-2-2-30-32t-61-66-45-52q-12-18-12-30 0-22 30-30l4-2q8-4 38-16l-52-114-2-8q-2-8-2-14 0-10 8-18 18-10 34 10 100 100 134 148z" horiz-adv-x="1000" />

<glyph glyph-name="paper-plane-1" unicode="&#xe8ec;" d="M894 720q14 4 22-3t4-19q-2-6-72-310t-74-316q-2-14-14-19t-24 1l-248 134-30 16 22 26q388 420 394 426 4 4-1 9t-9 1l-550-402-112 44-190 76q-12 4-12 12t12 12q8 4 441 157t441 155z m-582-728l0 204 160-82q-130-116-142-128-18-14-18 6z" horiz-adv-x="921" />

<glyph glyph-name="lifebuoy-1" unicode="&#xe8ed;" d="M454 810q190 2 326-130t140-322q2-190-131-327t-323-141q-190-2-327 131t-139 323q-4 190 130 327t324 139z m0-60q-94 0-178-44l62-104q56 28 122 28t122-28l62 104q-88 46-190 44z m-246-522q-28 60-28 122 0 64 28 124l-102 62q-46-88-46-190 2-96 46-180z m258-278q98 4 178 46l-62 104q-60-30-122-30t-122 30l-62-104q86-46 190-46z m-6 180q92 0 156 65t64 155q0 92-64 156t-156 64-156-64-64-156q0-90 64-155t156-65z m252 98l104-62q46 96 44 190 0 96-44 180l-104-62q28-60 28-124 0-62-28-122z" horiz-adv-x="920" />

<glyph glyph-name="mouse" unicode="&#xe8ee;" d="M551 130q28-80-17-157t-139-111q-94-28-175 9t-103 117l-106 384q-20 68 6 134t84 106l-96 186q-14 34 14 48 30 18 48-14l98-192q80 22 154-16t102-116z m-324 274q28 10 40 36t4 54q-10 28-35 41t-53 5q-28-10-40-36t-4-54q10-28 35-41t53-5z" horiz-adv-x="561" />

<glyph glyph-name="dot-2" unicode="&#xe8ef;" d="M110 460q46 0 78-32t32-78q0-44-32-77t-78-33-78 32-32 78 32 78 78 32z m350 0q46 0 78-32t32-78q0-44-33-77t-77-33q-46 0-78 32t-32 78 32 78 78 32z" horiz-adv-x="570" />

<glyph glyph-name="dot-3" unicode="&#xe8f0;" d="M110 460q46 0 78-32t32-78q0-44-32-77t-78-33-78 33-32 77q0 46 32 78t78 32z m350 0q46 0 78-32t32-78q0-44-33-77t-77-33-77 33-33 77q0 46 32 78t78 32z m350 0q46 0 78-32t32-78q0-44-32-77t-78-33-78 33-32 77q0 46 32 78t78 32z" horiz-adv-x="920" />

<glyph glyph-name="dot" unicode="&#xe8f1;" d="M110 460q46 0 78-32t32-78q0-44-32-77t-78-33-78 33-32 77q0 46 32 78t78 32z" horiz-adv-x="220" />

<glyph glyph-name="chart-bar" unicode="&#xe8f2;" d="M750 800q22 0 36-15t14-35l0-850-200 0 0 850q0 50 40 50l110 0z m-300-300q22 0 36-15t14-35l0-550-200 0 0 550q0 50 40 50l110 0z m-300-300q22 0 36-15t14-35l0-250-200 0 0 250q0 50 40 50l110 0z" horiz-adv-x="800" />

<glyph glyph-name="megaphone-1" unicode="&#xe8f3;" d="M792 500q58-138 67-258t-39-140q-28-12-61 3t-65 40-99 41-149 8q-28-4-42-19t-6-37q22-56 46-108 4-10 24-22t24-20q14-34-22-46-50-22-102-40-30-10-54 42-32 76-58 132-6 12-34 17t-46 31q-30-10-38-14-34-12-74 12t-54 60q-17 32-5 79t43 61q126 52 213 108t124 103 59 92 25 78 15 59 36 36q48 20 130-70t142-228z m-28-300q8 4 10 38t-11 98-41 128q-28 66-67 123t-67 84-36 23-10-42 10-105 40-133 68-119 68-76 36-19z" horiz-adv-x="860" />

<glyph glyph-name="bucket" unicode="&#xe8f4;" d="M522 780q174 0 286-49t104-105q-6-38-48-307t-44-281q-2-18-37-44t-107-50-154-24-153 24-106 50-37 44q0 2-4 30 82-6 163 35t139 117q28 0 48 20t20 50q0 28-20 49t-50 21q-28 0-49-21t-21-49q0-20 10-36-48-58-115-89t-131-27q-102 10-157 57t-59 109q-8 122 156 184-18 94-22 138-8 56 104 105t284 49z m-452-470q4-32 37-59t91-39l-32 204q-100-44-96-106z m452 212q82 0 157 18t113 39 38 35-38 35-112 39-158 18q-82 0-156-18t-112-39-38-35 38-35 112-39 156-18z" horiz-adv-x="913" />

<glyph glyph-name="flickr-circled" unicode="&#xe8f5;" d="M480 830q200 0 340-140t140-340q0-198-140-339t-340-141q-198 0-339 141t-141 339q0 200 141 340t339 140z m-128-580q40 0 70 30t30 70q0 42-30 72t-70 30-70-30-30-72q0-40 30-70t70-30z m256 0q42 0 71 30t29 70q0 42-29 72t-71 30q-40 0-69-30t-29-72q0-40 29-70t69-30z" horiz-adv-x="960" />

<glyph glyph-name="facebook-1" unicode="&#xe8f6;" d="M500 644l-142 0q-14 0-25-15t-11-37l0-102 178 0 0-148-178 0 0-442-170 0 0 442-152 0 0 148 152 0 0 86q0 94 59 159t147 65l142 0 0-156z" horiz-adv-x="500" />

<glyph glyph-name="star-2" unicode="&#xe8f7;" d="M2 460q11 37 101 37h225l69 207v1q19 56 44 75t49 0 43-75l1-1 68-207h226q58 0 85-17t14-47-59-63l-5-4-176-126 67-207 2-2q27-85-4-109t-105 29l-3 2-2 1-177 127-179-128-2-2q-73-52-105-29t-4 109l1 1v2l68 206-177 126-2 2-2 2q-73 52-61 90z" horiz-adv-x="931.2" />

<glyph glyph-name="star-empty-2" unicode="&#xe8f8;" d="M3 436q-12 31 16 50t91 18h242l74 222v1q14 45 33 68t40 23q20 0 39-23t33-68l1-1 73-222h242q63 0 91-18t16-50-64-68l-5-4-190-135 74-221 1-3q19-60 11-91t-40-32q-37 0-88 38l-2 2-3 1-189 136-192-137-3-2q-52-39-88-39-31 0-40 32t11 92l1 3 74 221-190 135-2 3-3 1q-51 37-64 68z m165-26l203-145-21-65-57-173 206 147 205-147-57 173-21 65 203 145h-251l-21 65-58 175-80-240h-251z" horiz-adv-x="997.6" />

<glyph glyph-name="heart-2" unicode="&#xe8f9;" d="M0 530q0 103 73 176t177 73q70 0 128-34t91-93q32 58 90 93t128 34q103 0 177-73t73-176q0-95-63-166l-343-403q-25-31-62-31t-63 31l-343 403q-63 71-63 166z" horiz-adv-x="937.5" />

<glyph glyph-name="mail-2" unicode="&#xe8fa;" d="M0 28v644q0 8 2 18l460-460q39-39 95-39 55 0 94 39l460 460q2-9 2-18v-644q0-37-26-62t-62-26h-937q-36 0-62 26t-26 62z m63 728q13 4 25 4h937q12 0 25-4l-463-463q-13-12-31-12t-30 12z" horiz-adv-x="1113.3" />

<glyph glyph-name="cancel-2" unicode="&#xe8fb;" d="M0 90q0 36 26 62l195 195-195 196q-26 25-26 61t26 61 61 25 61-25l196-196 195 196q25 25 61 25t61-25 25-61-25-61l-195-196 195-195q25-26 25-62t-25-61q-25-25-61-25t-61 25l-195 195-196-195q-25-25-61-25t-61 25q-26 26-26 61z" horiz-adv-x="686.5" />

<glyph glyph-name="ok-1" unicode="&#xe8fc;" d="M0 339q0-35 24-60l246-239q24-25 60-25 36 0 60 25l505 495q25 24 25 59t-25 58q-25 25-60 25t-60-25l-445-435-185 181q-25 24-60 24t-61-24q-24-24-24-59z" horiz-adv-x="920.4" />

<glyph glyph-name="plus-2" unicode="&#xe8fd;" d="M0 291v119q0 20 14 35t35 14h281v281q0 20 15 35t35 14h119q20 0 34-14t15-35v-281h281q20 0 35-14t14-35v-119q0-21-14-35t-35-15h-281v-282q0-20-15-34t-34-15h-119q-21 0-35 15t-15 34v282h-281q-20 0-35 15t-14 35z" horiz-adv-x="878.9" />

<glyph glyph-name="help-circled-2" unicode="&#xe8fe;" d="M0 350q0 95 37 182t100 149 149 100 183 37q95 0 182-37t149-100 100-149 37-182-37-182-100-150-149-100-182-37q-96 0-183 37t-149 100-100 150-37 182z m333 175l31-101q46 29 92 29 50 0 50-22 0-5-2-8t-6-8-7-5-10-6-9-4l-40-21q-22-12-28-25t-6-37v-38h117v16q0 7 0 10t3 6 6 6q1 0 11 4t17 9 19 10 18 14q19 16 29 36t11 56q0 49-42 83t-106 34q-85 0-148-38z m48-333q0-32 21-49t55-17q33 0 54 17t20 49-20 49-54 18q-35 0-55-18t-21-49z" horiz-adv-x="937.5" />

<glyph glyph-name="help-circled-alt" unicode="&#xe8ff;" d="M0 350q0 95 37 182t100 149 149 100 183 37q95 0 182-37t149-100 100-149 37-182q0-95-37-182t-100-150-149-100-182-37q-96 0-183 37t-149 100-100 150-37 182z m117 0q0-71 28-137t75-112 112-75 137-28 136 28 112 75 75 112 28 137q0 95-47 176t-128 128-176 47-177-47-128-128-47-176z m216 176l31-101q45 29 93 29 49 0 49-23 0-4-2-8t-3-5-6-5-7-5-8-4l-8-4-40-21q-22-12-28-25t-6-37v-37h117v16q0 7 0 10t3 6 6 5q1 1 11 5t17 8 19 11 18 13q19 17 29 37t11 55q0 49-42 83t-106 34q-83 0-148-37z m48-334q0-32 21-49t55-17q33 0 54 17t20 49-20 49-54 18q-35 0-55-18t-21-49z" horiz-adv-x="937.5" />

<glyph glyph-name="home-2" unicode="&#xe900;" d="M0 340q-2 16 21 37l381 351q23 22 57 22t56-22l381-351q23-21 20-37t-30-15h-91v-305q0-32-23-55t-55-23h-517q-32 0-55 23t-23 55v305h-92q-27 0-30 15z" horiz-adv-x="916.5" />

<glyph glyph-name="pencil-2" unicode="&#xe901;" d="M0-119l60 281 627 628q21 21 51 21t50-20l121-122q21-21 21-50t-21-50l-628-628z m68 69l194 44 24 25-149 149-24-24z" horiz-adv-x="930.2" />

<glyph glyph-name="clock-1" unicode="&#xe902;" d="M0 350q0 95 37 182t100 149 150 100 182 37 182-37 149-100 100-149 37-182-37-182-100-150-149-100-182-37-182 37-150 100-100 150-37 182z m117 0q0-96 47-177t128-128 177-47q95 0 176 47t128 128 47 177q0 95-47 176t-128 128-176 47q-72 0-137-28t-112-75-75-112-28-136z m293 0v224q0 24 17 41t42 18 41-18 17-41v-200l142-141q17-17 17-42t-17-41-41-17q-25 0-42 17l-159 158q-1 2-4 5t-3 4q-1 2-2 4l-2 3t-1 4q-1 0-2 5-2 5-2 5-1 6-1 12z" horiz-adv-x="937.5" />

<glyph glyph-name="stopwatch" unicode="&#xe903;" d="M0 617l246 246 81-82-40-41 42-43q58 34 124 52v101h231v-101q99-26 178-90t124-158 45-200q0-94-36-180t-99-148-148-99-179-37-181 37-147 99-99 148-37 180q0 123 62 231l-44 44-41-41z m222-316q0-94 46-174t127-127 174-47 174 47 126 127 47 174-47 174-126 126-174 47-174-47-127-126-46-174z m118 130q0 24 16 41 17 17 41 17t41-17l140-140h198q24 0 41-17t16-41q0-25-17-40-17-18-40-18h-222q-3 0-11 1l-5 2q-1 0-3 1t-3 0q-1 1-3 2t-2 1l-5 3q-3 2-9 8l-157 156q-16 17-16 41z" horiz-adv-x="1031.7" />

<glyph glyph-name="down-2" unicode="&#xe904;" d="M0 283q0 25 18 43t44 18 42-18l244-243v642q0 25 18 43t43 18 43-18 18-43v-642l243 243q18 18 43 18t43-18q18-18 18-43t-18-44l-390-390-391 390q-18 20-18 44z" horiz-adv-x="817.4" />

<glyph glyph-name="left-2" unicode="&#xe905;" d="M0 353l390 391q19 18 44 18 25 0 43-18t18-44-18-43l-243-243h642q25 0 43-18t18-43-18-43-43-18h-642l243-243q18-18 18-44t-18-43-43-18-44 18z" horiz-adv-x="938" />

<glyph glyph-name="right-2" unicode="&#xe906;" d="M0 347q0 26 18 43t43 17h642l-242 244q-19 18-19 44t19 42q17 19 42 19t44-19l390-390-390-391q-20-18-44-18t-42 18-19 44 19 43l242 242h-642q-25 0-43 18t-18 44z" horiz-adv-x="938" />

<glyph glyph-name="up-2" unicode="&#xe907;" d="M0 354q0 26 18 44l391 390 390-390q18-18 18-44 0-26-18-43-18-18-43-18t-43 18l-243 243v-642q0-25-18-43t-43-18q-26 0-44 18t-17 43v642l-244-243q-18-18-43-18t-43 18q-18 17-18 43z" horiz-adv-x="817.4" />

<glyph glyph-name="cloud-1" unicode="&#xe908;" d="M0 257q-2 44 10 86t35 78 57 64 77 45q77 30 156 13 36 81 111 130t166 49q62 0 118-25t97-64 65-98 25-118q0-9-2-27 1 0 3 1t3 1q81 31 159-3t110-116q20-55 12-108t-43-97-88-64q-37-14-73-14h-718v0q-86 0-158 49t-103 130q-17 43-19 88z" horiz-adv-x="1205.1" />

<glyph glyph-name="flash" unicode="&#xe909;" d="M0 345l387 467q3 4 9 4t9-3q6-5 4-13l-104-343 259-104-385-465q-3-4-9-5t-9 3q-7 6-4 13l104 344z" horiz-adv-x="564" />

<glyph glyph-name="facebook-2" unicode="&#xe90a;" d="M124-150v469h-124v169h124v145c0 113 73 217 242 217 69 0 119-7 119-7l-4-157s-51 0-108 0c-60 0-70-28-70-74v-124h183l-8-169h-175v-469h-179" horiz-adv-x="486" />

<glyph glyph-name="facebook-rect" unicode="&#xe90b;" d="M183 850c-102 0-183-81-183-183l0-634c0-102 81-183 183-183l344 0 0 391-104 0 0 141 104 0 0 120c0 94 61 181 201 181 57 0 100-5 100-5l-4-132s-43 1-90 1c-50 0-58-24-58-62l0-103 152 0-6-141-146 0 0-391 141 0c102 0 183 81 183 183l0 634c0 102-81 183-183 183l-634 0z" horiz-adv-x="1000" />

<glyph glyph-name="twitter-bird" unicode="&#xe90c;" d="M1231 732q-51-77-126-131 1-14 1-32 0-102-30-203-29-102-90-195-61-92-145-164-84-72-201-114-118-43-253-43-210 0-387 113 31-3 60-3 176 0 314 108-82 2-147 51-64 49-89 125 24-5 48-5 34 0 66 9-87 17-145 87-57 69-57 160l0 4q53-30 114-32-52 34-82 90-30 55-30 120 0 68 34 127 95-117 230-186 135-70 290-78-6 28-6 58 0 104 74 178 74 74 178 74 110 0 185-80 85 17 160 62-29-91-111-140 76 9 145 40z" horiz-adv-x="1231" />

<glyph glyph-name="vimeo-2" unicode="&#xe90d;" d="M1158 619q-8-169-236-463-236-306-400-306-101 0-171 187l-94 343q-52 187-112 187-13 0-90-55l-55 70q86 76 169 151 114 99 171 104 135 13 166-185 34-212 47-264 39-177 86-177 36 0 109 114 73 115 78 174 10 99-78 99-42 0-86-18 86 278 327 270 180-5 169-231z" horiz-adv-x="1158.8" />

<glyph glyph-name="vimeo-rect" unicode="&#xe90e;" d="M193 850c-107 0-193-86-193-193l0-614c0-107 86-193 193-193l614 0c107 0 193 86 193 193l0 614c0 107-86 193-193 193l-614 0z m517-197c3 0 6 0 9 0 74-2 108-50 104-143-3-69-52-164-146-285-97-126-179-189-247-189-41 0-77 38-106 115l-57 212c-22 77-45 115-69 115-6 0-24-11-56-33l-34 43c35 31 70 62 104 93 47 40 83 62 106 64 56 5 90-33 103-114 14-88 23-142 29-163 16-73 33-109 52-109 15 0 38 23 68 70 30 47 46 83 48 107 4 41-12 61-48 61-17 0-35-3-53-11 34 111 98 167 193 167z" horiz-adv-x="1000" />

<glyph glyph-name="tumblr-rect" unicode="&#xe90f;" d="M193 850c-107 0-193-86-193-193l0-614c0-107 86-193 193-193l614 0c107 0 193 86 193 193l0 614c0 107-86 193-193 193l-614 0z m242-141l99 0 0-177 166 0 0-109-166 0 0-179c0-40 2-66 7-78 4-11 12-20 23-27 16-9 33-14 53-14 36 0 71 12 106 35l0-110c-30-14-57-24-81-30-24-6-51-8-79-8-31 0-60 4-84 12-25 8-45 19-63 34-17 15-29 31-36 48-6 16-10 41-10 73l0 244-77 0 0 99c28 9 51 21 71 38 19 17 35 36 47 60 11 23 20 53 24 89z" horiz-adv-x="1000" />

</font>
</defs>
</svg>
